<?xml version="1.0" standalone="no"?>
<!DOCTYPE svg PUBLIC "-//W3C//DTD SVG 1.1//EN" "http://www.w3.org/Graphics/SVG/1.1/DTD/svg11.dtd">
<svg xmlns="http://www.w3.org/2000/svg">
<defs >
<font id="EBGaramond" horiz-adv-x="527" ><font-face
    font-family="EB Garamond"
    units-per-em="1000"
    panose-1="0 0 5 0 0 0 0 0 0 0"
    ascent="1007"
    descent="-298"
    alphabetic="0" />
<glyph unicode=" " glyph-name="space" horiz-adv-x="200" />
<glyph unicode="!" glyph-name="exclam" horiz-adv-x="250" d="M115 205T111 213T105 244Q95 336 87 442T79 594Q79 616 92 632T126 649Q146 649 158 633T171 594Q171 527 141 244Q139 227 135 216T123 205Q115 205 111 213ZM100 -14T83 3T65 46Q65 71 82 88T125
106Q150 106 167 89T185 46Q185 21 168 4T125 -14Q100 -14 83 3Z" />
<glyph unicode="&quot;" glyph-name="quotedbl" horiz-adv-x="330" d="M69 444T67 451T65 467Q66 488 66 524Q66 555 64 587T62 620Q62 630 68 639T81 655Q95 666 104 671T124 676Q131 676 134 667T138 644Q138 610 123 560T91 469Q87 460 82 452T72 444Q69 444
67 451ZM199 444T197 451T195 467Q196 488 196 524Q196 555 194 587T192 620Q192 630 198 639T211 655Q225 666 234 671T254 676Q261 676 264 667T268 644Q268 610 253 560T221 469Q217 460 212 452T202 444Q199 444 197 451Z" />
<glyph unicode="#" glyph-name="numbersign" horiz-adv-x="468" d="M56 -79T53 -76T50 -67V-64L94 113L31 110Q26 110 22 113T17 122Q17 136 22 152T41 170L108 173L142 311L78 308Q73 308 69 311T64 320Q64 334 69 350T88 368L157 371L199 542Q203 559 232 559Q236
559 238 556T240 547L239 542L198 373L311 379L354 553Q358 570 387 570Q391 570 393 567T395 558L394 553L352 381L411 384Q416 384 420 381T424 373Q424 361 416 343T393 324L337 321L303 183L364 186Q369 186 373 183T377 174Q377 162 369 145T346 126L288 123L245
-53Q242 -68 215 -68Q211 -68 208 -65T205 -56V-53L248 121L134 115L90 -64Q87 -79 60 -79Q56 -79 53 -76ZM263 181L296 319L183 313L149 175L263 181Z" />
<glyph unicode="$" glyph-name="dollar" horiz-adv-x="441" d="M164 -82T160 -77T156 -62L165 9V11Q165 18 158 18Q105 27 61 61Q60 62 56 67T49 79Q45 93 44 117T41 150Q41 167 40 174Q40 180 45 183T58 186Q72 186 73 176Q98 86 161 60Q164 58 167 58T170 62L197
291V294Q197 301 185 308Q124 344 90 379T56 466Q56 534 102 580T232 632Q236 632 239 634T242 638L249 695Q252 712 278 712Q283 712 287 707T291 697L284 637Q284 631 290 630Q314 626 353 610Q367 606 373 588Q375 580 383 551T392 499Q392 489 378 489Q369
489 361 492T351 501Q322 570 279 588Q277 588 276 587T275 583L251 385L250 380Q250 377 253 374T263 367Q327 330 362 292T398 194Q398 118 348 70T214 16Q206 16 205 9L196 -67Q195 -75 188 -78T171 -82Q164 -82 160 -77ZM212 400T212 405L234 587Q234 595 227
595Q134 588 134 497Q134 471 151 449T203 404Q212 400 212 405ZM264 56T291 84T319 158Q319 200 301 224T243 274Q240 275 238 274T236 269L211 63Q211 57 212 55T219 53Q264 56 291 84Z" />
<glyph unicode="%" glyph-name="percent" horiz-adv-x="650" d="M102 263T73 288T30 354T15 438Q15 483 33 524T84 590T160 615Q199 615 227 591T270 529T285 449Q285 402 268 360T219 290T142 263Q102 263 73 288ZM197 285T211 328T225 437Q225 502 210 546T149
590Q107 590 91 549T75 449Q75 378 90 332T153 285Q197 285 211 328ZM508 658T517 661T541 665Q546 665 550 661T555 652Q555 649 554 648L116 -47Q110 -56 102 -59T80 -62Q74 -62 69 -58T63 -50Q63 -48 64 -47L502 648Q508 658 517 661ZM452 -17T423 8T380 74T365
158Q365 203 383 244T434 310T510 335Q549 335 577 311T620 249T635 169Q635 122 618 80T569 10T492 -17Q452 -17 423 8ZM547 5T561 48T575 157Q575 222 560 266T499 310Q457 310 441 269T425 169Q425 98 440 52T503 5Q547 5 561 48Z" />
<glyph unicode="&amp;" glyph-name="ampersand" horiz-adv-x="756" d="M161 -15T122 3T60 54T38 127Q38 202 82 254T205 342L225 351L210 367Q205 373 187 391T157 433T145 484Q145 518 165 544T217 584T284 599Q324 599 353 580T396 533T411 477Q412 404 306
365L292 360L305 346Q318 331 329 321T348 301Q377 272 396 250T435 201L447 183L465 202Q501 241 538 291T575 352Q575 359 567 368T547 380Q544 381 540 385T535 391Q535 397 542 399T557 402L579 400Q630 397 628 397Q645 397 681 405Q709 412 724 412Q727 412
731 409T736 403Q736 397 727 391T711 384Q670 381 638 353Q630 346 558 270T459 165L476 141Q511 91 541 66T608 40Q655 40 686 58Q694 63 703 63Q710 63 712 61T715 51Q715 42 694 26T642 -2T586 -15Q549 -15 525 -3T481 32T432 101L419 122L413 116L392 93Q358
55 335 34T281 -1T212 -15Q161 -15 122 3ZM292 382Q318 394 332 422T347 482Q347 519 330 546T279 573Q249 573 226 555T203 509Q203 478 214 456T263 393L279 376L292 382ZM285 50T322 70T398 131L407 140L395 159Q379 184 356 210T298 272L252 321L240 334L219
326Q156 302 136 259T115 160Q115 113 149 82T238 50Q285 50 322 70Z" />
<glyph unicode="&apos;" glyph-name="quotesingle" horiz-adv-x="200" d="M69 444T67 451T65 467Q66 488 66 524Q66 555 64 587T62 620Q62 630 68 639T81 655Q95 666 104 671T124 676Q131 676 134 667T138 644Q138 610 123 560T91 469Q87 460 82 452T72 444Q69
444 67 451Z" />
<glyph unicode="(" glyph-name="parenleft" horiz-adv-x="315" d="M227 -214T220 -207Q183 -170 141 -88T69 91T40 269Q40 349 68 433T137 586T216 694Q221 699 228 702T243 705Q249 705 257 700T265 689Q264 685 260 679T252 670Q200 610 162 505T123 281Q123
199 141 107T189 -62T249 -173Q251 -176 257 -183T264 -192Q264 -202 256 -208T237 -214Q227 -214 220 -207Z" />
<glyph unicode=")" glyph-name="parenright" horiz-adv-x="315" d="M67 -214T59 -208T51 -192Q51 -191 57 -184T66 -173Q96 -138 125 -62T173 106T192 281Q192 399 154 504T63 670Q60 673 56 679T50 689Q50 695 58 700T72 705Q79 705 86 702T99 694Q137 656 178
587T247 433T275 269Q275 189 246 92T175 -88T95 -207Q88 -214 78 -214Q67 -214 59 -208Z" />
<glyph unicode="*" glyph-name="asterisk" horiz-adv-x="340" d="M178 372T173 377T167 390L154 482Q127 463 75 432Q71 428 64 428Q57 428 52 431T46 442Q46 450 55 459L128 517Q81 539 46 559Q41 561 38 566T34 577Q34 586 43 589T59 590Q88 577 111 569Q119
566 127 563T146 555Q141 598 140 648Q140 657 144 663T157 670Q164 670 168 665T174 652L187 560Q214 579 266 610Q270 614 277 614Q284 614 289 611T295 600Q295 592 286 583L213 525Q260 503 295 483Q300 481 303 476T307 465Q307 456 298 453T282 452Q253 465
230 473Q222 476 214 479T195 487Q200 444 201 394Q201 385 197 379T184 372Q178 372 173 377Z" />
<glyph unicode="+" glyph-name="plus" horiz-adv-x="590" d="M278 -8T274 -4T270 6V217Q270 222 266 222H64Q59 222 55 225T50 234Q50 245 56 258T74 272H263Q267 272 268 273T270 280V451Q270 465 288 473T316 482Q321 482 325 478T330 469V278Q330 272 332 272H537Q542
272 546 269T550 262Q550 248 541 235T519 222H334Q330 222 330 218V16Q330 3 313 -2T282 -8Q278 -8 274 -4Z" />
<glyph unicode="," glyph-name="comma" horiz-adv-x="230" d="M29 -147T25 -144T20 -136Q20 -127 34 -124Q73 -116 101 -90T130 -15Q130 -2 118 13T91 29Q69 31 57 42T44 71Q44 91 60 104T99 117Q135 117 158 90T182 20Q182 -27 158 -65T100 -125T38 -147Q29 -147
25 -144Z" />
<glyph unicode="-" glyph-name="hyphen" horiz-adv-x="274" d="M29 170T29 176Q29 194 33 211T45 230Q173 248 237 255Q245 255 245 249Q245 227 240 212T224 195L198 191Q95 175 35 170Q29 170 29 176Z" />
<glyph unicode="." glyph-name="period" horiz-adv-x="230" d="M93 -14T77 2T60 41Q60 64 76 80T115 96Q138 96 154 80T170 41Q170 19 154 3T115 -14Q93 -14 77 2Z" />
<glyph unicode="/" glyph-name="slash" horiz-adv-x="399" d="M27 -62T23 -58T21 -47L318 648Q323 658 332 661T357 665Q366 665 369 660T370 648L73 -47Q69 -56 60 -59T37 -62Q27 -62 23 -58Z" />
<glyph unicode="0" glyph-name="zero" horiz-adv-x="480" d="M437 -14T392 32T324 151T301 302Q301 383 323 458T393 581T511 630Q575 630 620 584T688 465T711 316Q711 236 689 160T619 35T501 -14Q437 -14 392 32ZM574 12T601 93T629 298Q629 376 613 445T566
558T492 602Q436 602 410 523T384 320Q384 242 399 171T445 56T518 12Q574 12 601 93Z" />
<glyph unicode="1" glyph-name="one" horiz-adv-x="480" d="M100 -3T96 0T92 9Q92 13 96 16T107 22Q153 33 174 41T206 65T217 109V491Q217 517 195 526T133 539Q122 540 115 544T107 556Q107 563 114 567T132 574Q187 582 219 593T282 636Q283 637 287 637Q292
637 296 635T299 628Q295 601 295 557V97Q295 72 304 60T332 40T401 21Q408 19 413 16T418 8Q418 3 414 0T404 -3Q363 -3 328 0Q282 2 257 2Q218 2 182 -1Q134 -3 107 -3Q100 -3 96 0Z" />
<glyph unicode="2" glyph-name="two" horiz-adv-x="480" d="M635 -1Q579 3 540 3Q551 3 380 0L308 -2Q304 -2 296 4T288 15Q288 20 291 23T296 28L467 205Q520 259 551 324T583 452Q583 504 552 535T476 566Q436 566 401 544T344 485Q341 479 336 475T327 471Q323
471 318 480T312 501Q312 518 339 550T410 606T507 630Q581 630 624 585T667 465Q667 425 647 377T594 290Q575 268 526 217T454 143Q384 73 384 71Q384 68 388 67T398 64Q431 61 486 61Q546 61 600 64Q644 66 660 74T695 111Q709 134 720 134Q727 134 727 122Q727
117 719 96Q702 44 697 21Q692 -3 675 -3L635 -1Z" />
<glyph unicode="3" glyph-name="three" horiz-adv-x="480" d="M139 -38T113 -31T68 -13T50 5Q50 16 66 33T94 51Q103 51 110 47T124 38T133 31Q149 17 166 9T208 0Q244 0 278 19T333 72T354 146Q354 209 323 256T238 304Q200 304 173 289Q171 288 168 288Q163
288 159 291T156 298Q163 321 186 332Q227 352 269 386T312 466Q312 508 285 539T218 570Q169 570 144 550T98 498Q94 491 91 486T84 481Q80 481 74 487T68 500Q68 521 90 552T155 606T261 630Q294 630 324 616T372 575T391 516Q391 476 366 437T286 366Q283 364
283 362T287 360Q329 360 363 339T418 281T439 203Q439 131 399 76T295 -8T161 -38Q139 -38 113 -31Z" />
<glyph unicode="4" glyph-name="four" horiz-adv-x="480" d="M204 -3T198 0T192 10Q192 15 197 18T210 22Q254 28 270 41T287 80V173Q287 177 281 179T272 182Q216 182 159 179Q115 177 29 175Q25 175 22 178T19 185Q19 187 20 188L43 216Q49 222 59 235L323 614Q342
642 353 642H374Q376 642 376 639Q376 636 375 633T372 628L102 240Q100 237 100 234T102 231H275Q279 231 283 233T287 239V394Q287 405 288 409T296 416Q309 423 325 426T352 429Q362 429 364 416T367 365V236Q367 230 372 230Q387 229 412 229Q427 229 471 231Q475
231 478 229T482 223Q482 212 474 199T461 185L412 186Q397 186 381 184Q377 183 373 181T368 178V84Q368 55 380 44T435 22Q442 20 447 16T453 8Q453 4 449 1T438 -3Q399 -3 376 0Q346 2 325 2Q301 2 269 0Q245 -3 210 -3Q204 -3 198 0Z" />
<glyph unicode="5" glyph-name="five" horiz-adv-x="480" d="M95 -38T84 -35T72 -26Q72 -19 85 -13T108 -7Q183 -7 235 20T314 91T341 179Q341 238 287 277T101 351Q88 362 83 372T77 397Q77 427 110 512L125 556Q135 585 166 592Q261 617 373 627H375Q382 627
385 622T384 610L367 577Q354 548 330 545L253 537Q188 532 158 527Q148 526 132 494T114 448V444Q114 433 127 429Q249 393 309 362Q366 332 393 292T420 193Q420 139 388 91T298 10Q213 -38 109 -38Q95 -38 84 -35Z" />
<glyph unicode="6" glyph-name="six" horiz-adv-x="480" d="M199 -16T152 8T76 79T47 193Q47 290 85 361T168 477Q217 527 285 573T435 641Q437 642 441 642Q447 642 451 639T453 634Q447 623 427 614Q359 584 311 547T225 456Q191 407 162 336T133 195Q134 142
155 103T210 43T278 22Q321 22 350 53T379 142Q379 189 353 224T288 260Q261 260 243 257T208 245Q202 243 201 243Q197 243 197 247Q197 250 201 256Q213 269 228 280Q242 291 271 302T326 313Q360 313 390 297T439 253T457 190Q457 130 427 83T349 10T252 -16Q199
-16 152 8Z" />
<glyph unicode="7" glyph-name="seven" horiz-adv-x="480" d="M106 -32T106 -6Q106 -2 127 35L410 541Q412 545 412 546Q412 550 400 551H144Q118 551 101 541T67 505Q53 480 43 480Q36 480 36 494Q36 499 38 506T40 516Q48 550 56 615Q57 626 66 626Q68 626 92
622T150 617L249 616Q324 616 394 617T479 621Q481 621 483 617T485 608Q485 596 468 571T447 538L146 -5Q131 -32 127 -32Q106 -32 106 -6Z" />
<glyph unicode="8" glyph-name="eight" horiz-adv-x="480" d="M196 -14T155 6T90 61T65 141Q65 181 86 212T134 262T199 302Q204 305 204 307Q204 309 196 315L179 329Q144 359 125 378T93 425T80 489Q80 527 106 559T175 611T262 630Q302 630 339 613T398 566T421
496Q421 464 407 443T368 400Q341 377 315 358Q302 349 302 345Q302 342 310 337Q376 291 407 254T439 164Q439 114 411 73T337 9T242 -14Q196 -14 155 6ZM320 385T332 419T344 503Q344 547 322 576T257 606Q234 606 211 593T172 558T157 509Q157 480 165 461T188
428T233 392Q269 365 274 361Q283 354 288 358Q320 385 332 419ZM300 15T329 47T359 124Q359 199 241 280Q228 290 221 290Q217 290 209 284Q174 256 160 229T145 157Q145 101 175 58T256 15Q300 15 329 47Z" />
<glyph unicode="9" glyph-name="nine" horiz-adv-x="480" d="M53 -31T53 -23Q53 -18 57 -16T67 -13Q112 -13 176 29T289 134Q337 196 357 256T378 389Q378 437 358 484T306 562T238 593Q207 593 185 576T152 534T140 482Q140 452 154 423T193 376T243 357Q264
357 277 361T303 372T323 383H324Q328 383 330 379T330 372Q320 354 297 337Q282 326 256 315T205 304Q170 304 138 320T86 366T65 430Q65 476 92 522T166 599T271 629Q318 629 363 596T435 510T463 400Q463 311 428 239T319 87Q268 31 197 0T67 -31Q53 -31 53
-23Z" />
<glyph unicode=":" glyph-name="colon" horiz-adv-x="248" d="M103 262T87 278T70 317Q70 340 86 356T125 372Q148 372 164 356T180 317Q180 295 164 279T125 262Q103 262 87 278ZM103 -14T87 2T70 41Q70 64 86 80T125 96Q148 96 164 80T180 41Q180 19 164 3T125
-14Q103 -14 87 2Z" />
<glyph unicode=";" glyph-name="semicolon" horiz-adv-x="228" d="M83 263T67 279T50 318Q50 341 66 357T105 373Q128 373 144 357T160 318Q160 296 144 280T105 263Q83 263 67 279ZM29 -147T25 -144T20 -136Q20 -127 34 -124Q73 -116 101 -90T130 -15Q130 -2
118 13T91 29Q69 31 57 42T44 71Q44 91 60 104T99 117Q135 117 158 90T182 20Q182 -27 158 -65T100 -125T38 -147Q29 -147 25 -144Z" />
<glyph unicode="&lt;" glyph-name="less" horiz-adv-x="560" d="M94 195Q53 214 53 222Q53 230 62 245T86 268L489 466Q494 469 497 469Q506 469 506 459Q506 448 498 432T475 408L132 234Q130 233 130 232T133 229L483 55Q495 49 501 34T507 7Q507 -4 496 -4Q493
-4 487 -2L94 195Z" />
<glyph unicode="=" glyph-name="equal" horiz-adv-x="566" d="M59 314T55 318T50 326Q50 337 56 350T74 364H502Q507 364 511 361T516 353Q516 342 506 328T484 314H64Q59 314 55 318ZM59 143T55 147T50 155Q50 166 56 179T74 193H502Q507 193 511 190T516 182Q516
168 506 156T484 143H64Q59 143 55 147Z" />
<glyph unicode="&gt;" glyph-name="greater" horiz-adv-x="560" d="M466 270Q507 251 507 243Q507 235 498 220T474 197L71 -1Q67 -4 63 -4Q54 -4 54 6Q54 17 62 33T85 57L428 231Q430 232 430 233T427 236L77 410Q65 416 59 431T53 458Q53 469 64 469Q67 469
73 467L466 270Z" />
<glyph unicode="?" glyph-name="question" horiz-adv-x="376" d="M131 181T124 189T114 210Q112 216 108 230T101 260T98 297Q98 321 122 340T199 387Q223 399 241 418T260 458Q260 509 234 540T159 573Q150 573 136 571Q122 569 112 569Q96 569 83 587T70 625Q70
639 83 650T110 661Q136 661 165 648T218 611Q259 570 285 514T311 418Q311 357 269 334Q220 307 183 283Q164 271 158 252T151 204Q151 196 147 189T136 181Q131 181 124 189ZM125 -14T108 3T90 46Q90 71 107 88T150 106Q175 106 192 89T210 46Q210 21 193 4T150
-14Q125 -14 108 3Z" />
<glyph unicode="@" glyph-name="at" horiz-adv-x="749" d="M293 -131T217 -91T96 20T50 181Q50 284 100 357T233 469T414 507Q488 507 553 470T659 371T699 235Q699 179 670 136T594 70T492 47Q474 47 465 54T448 73T438 84Q435 84 416 74T373 55T322 47Q271 47
238 76T204 156Q204 215 233 260T311 330T415 355Q430 355 450 353T480 347Q498 341 503 341Q508 341 515 350T528 360Q533 360 540 358T546 352Q540 336 534 312T524 272L503 140Q502 135 501 129T500 113Q500 84 518 84Q553 84 584 101T633 149T652 220Q652 288
617 344T522 434T394 467Q314 467 246 433T138 336T97 191Q97 113 137 49T246 -53T393 -91Q441 -91 501 -69T600 -14Q612 -4 618 -4Q632 -4 632 -17Q632 -30 590 -58T490 -108T382 -131Q293 -131 217 -91ZM375 81T388 86T418 103Q428 110 434 120T445 152L464 255Q465
259 465 267Q465 294 446 309T393 325Q363 325 336 308T292 256T275 175Q275 126 299 104T358 81Q375 81 388 86Z" />
<glyph unicode="A" glyph-name="A" horiz-adv-x="692" d="M14 -5T6 -2T-2 8Q-2 21 31 31Q60 40 81 56T117 108Q170 230 209 329T304 578Q315 609 318 636Q321 637 332 640T354 651Q362 657 366 669T373 685Q374 686 375 686T378 684Q380 679 381 673T385 662Q459
429 563 128Q582 73 605 54T664 28Q680 25 688 19T697 5Q697 -5 668 -5L614 -3Q558 1 529 1L424 0Q395 0 395 12Q395 18 404 23T428 31Q489 41 489 76Q489 108 450 238Q448 245 443 247T423 249H234Q223 249 217 231Q206 199 191 148T176 87Q176 66 192 51T234
30Q252 25 259 21T267 10Q267 -1 238 -1Q220 -1 208 0L147 1Q130 1 110 0T79 -2Q51 -5 27 -5Q14 -5 6 -2ZM416 282Q422 282 426 283T430 287L428 297L350 541Q344 559 341 559Q339 559 333 542L242 297L240 289Q240 284 244 283T261 282H416Z" />
<glyph unicode="B" glyph-name="B" horiz-adv-x="587" d="M19 -5T19 6Q19 13 27 17T52 24Q92 31 111 48T130 99V549Q130 585 115 602T63 622Q47 623 39 629T30 642Q30 653 59 653Q104 653 119 652H163Q178 652 206 654Q257 657 274 657Q394 657 450 623T506 508Q506
477 496 451T472 412Q456 396 443 388T405 369Q401 367 401 364T405 359Q447 345 475 329T525 281T547 194Q547 143 531 111T494 62T443 30Q375 -4 273 -4L243 -3Q216 0 178 0Q153 0 117 -2Q89 -5 48 -5Q19 -5 19 6ZM323 371T375 400Q391 409 405 433T420 495Q420
549 389 588T274 627Q235 627 222 617T208 582V408Q208 371 254 371Q323 371 375 400ZM331 37T369 57T430 112T453 189Q453 240 431 271T379 318Q334 343 265 343Q236 343 222 332T208 307V108Q208 68 227 53T287 37Q331 37 369 57Z" />
<glyph unicode="C" glyph-name="C" horiz-adv-x="710" d="M313 -15T230 27T97 147T46 323Q46 418 99 495T241 618T432 663Q484 663 516 658T610 637Q624 633 630 625T639 603Q647 525 648 488Q649 482 644 478T631 473Q618 473 614 487Q603 530 590 555T552 598Q527
614 492 623T415 632Q339 632 278 592T182 487T147 347Q147 264 182 188T279 64T422 16Q491 16 538 47T621 141Q624 147 630 150T641 154Q647 154 651 150T655 138Q655 126 646 95T628 41Q620 27 616 23T596 14Q561 0 510 -7T407 -15Q313 -15 230 27Z" />
<glyph unicode="D" glyph-name="D" horiz-adv-x="754" d="M325 -5Q215 0 163 0Q146 0 118 -2Q96 -5 58 -5Q29 -5 29 8Q29 16 35 18T62 24Q100 31 114 47T129 99V549Q129 584 115 599T62 622Q43 625 36 628T29 640Q29 653 58 653L115 652Q130 651 169 651Q210 651
272 656Q293 657 310 658T340 659Q470 659 555 618T679 505T719 342Q719 248 672 168T545 40T371 -7L325 -5ZM436 28T496 66T590 171T624 325Q624 417 584 486T480 591T345 628Q292 628 266 625T224 609T209 567V121Q209 66 249 47T359 28Q436 28 496 66Z" />
<glyph unicode="E" glyph-name="E" horiz-adv-x="564" d="M37 -5T37 6Q37 13 45 17T70 24Q109 31 126 47T144 99V549Q144 584 130 599T77 622Q44 628 44 642Q44 653 73 653Q111 653 165 651L250 650L387 651L472 653Q489 653 490 644Q492 636 498 600T505 541Q505
526 491 526Q486 526 484 528T480 536Q478 541 472 562T458 591Q434 618 391 618H260Q250 618 237 609T224 586V374Q224 365 229 359T242 352H341Q369 352 380 362T399 401Q405 423 417 423Q421 423 425 419T430 407L429 381L427 337L428 284L429 260Q429 243 420
243Q405 243 397 275Q391 299 381 309T351 320H258Q239 320 232 315T224 294V102Q224 65 239 50T290 35H364Q397 35 418 39T455 52Q470 62 482 79T512 129Q519 142 526 142Q539 142 539 128Q539 115 528 74T508 12Q507 10 505 5T501 -2T494 -5Q474 -5 318 -2Q249
1 181 1Q153 1 129 -2Q78 -5 66 -5Q37 -5 37 6Z" />
<glyph unicode="F" glyph-name="F" horiz-adv-x="512" d="M30 -5T30 6Q30 13 38 17T63 24Q101 31 115 47T130 100V522Q130 570 118 593T69 622Q36 628 36 642Q36 653 65 653Q102 653 154 651L237 650H363Q391 650 427 656Q453 660 462 660Q479 660 480 651Q482
636 483 602T485 550Q485 529 476 529Q471 529 467 532T461 541Q452 575 438 590Q414 617 371 617H244Q223 617 217 605T210 567Q209 542 209 467Q209 396 210 372Q210 350 220 350Q247 350 293 352L336 353Q357 353 373 364T397 394Q399 398 405 404T415 411Q419
411 424 406T428 395Q425 361 425 340Q425 316 428 272Q428 255 419 255Q410 255 404 262T396 278Q389 299 376 308T349 318L299 319Q255 319 234 317Q210 315 210 292Q210 167 213 101Q215 67 229 49T279 24Q296 21 304 17T312 6Q312 -5 283 -5Q251 -5 225 -1Q207
2 185 2Q168 2 151 1T125 -1Q87 -5 59 -5Q30 -5 30 6Z" />
<glyph unicode="G" glyph-name="G" horiz-adv-x="729" d="M300 -14T220 29T93 146T45 311Q45 408 95 488T230 616T413 663Q448 663 520 652T613 630Q618 628 619 626T622 618Q632 540 632 512Q632 504 628 498T617 492Q608 492 603 499T594 519Q583 549 563 572Q549
590 508 607T404 625Q329 625 270 584T177 473T144 324Q144 233 181 165T278 60T406 23Q456 23 485 34T528 60Q541 73 549 93T558 137Q558 155 559 165L560 195Q560 219 555 225Q544 240 511 248T457 256Q452 256 445 261T437 273Q437 280 444 285T457 290Q480
290 516 288Q554 286 583 286Q601 286 627 288Q653 290 672 290Q678 290 685 286T693 274Q693 268 685 263T672 256Q651 250 642 239T630 207Q625 171 625 132V105Q625 100 627 96T631 89Q633 86 638 81T644 72Q644 55 630 53Q623 52 603 41Q554 18 504 2T392 -14Q300
-14 220 29Z" />
<glyph unicode="H" glyph-name="H" horiz-adv-x="810" d="M53 -5T45 -2T37 8Q37 14 44 17T69 24Q106 31 118 46T130 99V551Q130 577 127 589T113 610T77 622Q60 625 52 629T44 640Q44 653 73 653Q103 653 133 651L176 650L221 651Q253 653 282 653Q311 653 311
640Q311 633 303 629T278 622Q241 615 226 598T210 551V354Q210 345 224 345H595Q602 345 602 357V552Q602 581 587 598T536 622Q519 625 511 629T503 640Q503 646 511 649T532 653Q560 653 596 651L648 650L683 651Q709 653 739 653Q768 653 768 640Q768 633 760
629T735 622Q701 616 692 601T682 552V100Q682 61 692 46T738 24Q756 21 763 18T770 8Q770 2 762 -1T741 -5Q704 -5 681 -2Q655 0 637 0Q617 0 591 -2Q567 -5 530 -5Q517 -5 509 -2T501 8Q501 14 508 17T533 24Q602 37 602 97V292V297Q602 301 601 304T597 307H215Q212
307 211 304T210 296V106Q210 75 232 53T290 24Q308 21 315 18T322 8Q322 2 314 -1T293 -5Q256 -5 229 -2Q197 0 176 0Q156 0 128 -2Q104 -5 66 -5Q53 -5 45 -2Z" />
<glyph unicode="I" glyph-name="I" horiz-adv-x="340" d="M19 -5T19 6Q19 13 27 17T52 24Q92 31 111 47T130 98V550Q130 585 116 600T63 622Q30 628 30 642Q30 653 59 653Q87 653 123 651L176 650L224 651Q256 653 285 653Q314 653 314 642Q314 628 281 622Q242
615 226 600T210 550V98Q210 64 229 48T289 24Q306 21 314 17T322 6Q322 -5 293 -5Q256 -5 229 -2Q197 0 176 0Q151 0 115 -2Q85 -5 48 -5Q19 -5 19 6Z" />
<glyph unicode="J" glyph-name="J" horiz-adv-x="340" d="M-16 -200T-42 -188T-69 -151Q-69 -135 -56 -120T-30 -104Q-2 -104 17 -129Q30 -145 40 -152T64 -159Q130 -159 130 -1V551Q130 585 116 600T64 622Q31 628 31 642Q31 653 60 653Q88 653 124 651L177 650L214
651Q240 653 271 653Q300 653 300 642Q300 628 267 622Q231 615 221 601T210 551V47Q210 -9 187 -59T131 -146Q85 -200 34 -200Q-16 -200 -42 -188Z" />
<glyph unicode="K" glyph-name="K" horiz-adv-x="681" d="M31 -5T31 6Q31 13 39 17T64 24Q102 31 116 47T131 101V551Q131 585 117 600T64 622Q31 628 31 642Q31 653 60 653L122 652Q137 651 172 651Q200 651 211 652L269 653Q298 653 298 642Q298 628 265 622Q230
616 221 600T211 551V364Q211 345 216 345Q221 345 229 350T243 363L443 567Q458 582 458 597Q458 605 453 611T439 620Q422 625 415 629T408 640Q408 651 437 651H491Q514 651 619 654L653 655Q663 655 669 652T675 644Q675 630 642 624Q548 607 490 558Q436 513
394 471T298 371Q296 369 296 366Q296 360 303 353L545 95Q580 56 597 45T655 24Q673 20 680 16T688 6Q688 -5 659 -5Q619 -5 587 -2Q547 0 520 0H492Q479 -1 439 -1Q410 -1 410 10Q410 17 416 20T437 27Q465 34 465 47Q465 55 450 72L238 306Q221 323 215 323Q211
323 211 309Q211 248 216 110Q218 74 231 52T280 24Q297 21 305 17T313 6Q313 -5 284 -5Q252 -5 226 -1Q208 2 186 2Q169 2 152 1T126 -1Q88 -5 60 -5Q31 -5 31 6Z" />
<glyph unicode="L" glyph-name="L" horiz-adv-x="584" d="M42 -5T35 -2T27 7Q27 19 49 24Q90 32 110 48T130 96V560Q130 584 125 595T109 612T69 622Q36 628 36 642Q36 653 65 653Q95 653 127 651L177 650L237 651Q275 653 303 653Q332 653 332 642Q332 628 299
622Q252 613 231 603T210 567V96Q210 63 225 49T287 35H411Q436 35 457 43T489 61Q509 78 518 91T541 132Q545 142 551 152T563 162Q569 162 572 157T575 144L574 139Q561 91 556 66T547 12Q545 -5 533 -5Q426 -5 336 -2Q234 0 190 0Q159 0 114 -2T55 -5Q42 -5
35 -2Z" />
<glyph unicode="M" glyph-name="M" horiz-adv-x="901" d="M19 -5T19 6Q19 13 27 17T52 24Q104 33 114 102Q155 410 155 528Q155 551 154 561Q153 572 151 579T139 594Q123 608 108 613T64 624Q54 626 48 631T42 644Q42 651 50 653T76 655Q89 655 151 651Q213 647
226 647Q240 647 245 631L252 605Q261 569 267 554L425 153Q428 144 438 144Q445 144 448 150L645 560Q657 605 663 635Q666 648 673 648H709Q724 648 781 653Q807 656 823 656Q844 656 844 646Q844 639 839 635T818 625Q809 622 794 616T759 602Q748 597 742 588T735
568Q735 480 738 403T749 223Q755 141 757 95Q758 64 776 48T832 24Q849 21 857 17T865 6Q865 -5 836 -5Q799 -5 772 -2Q740 0 719 0Q702 0 674 -2Q652 -5 614 -5Q585 -5 585 6Q585 20 618 24Q647 28 658 44T669 96Q669 198 666 284T661 387Q659 412 657 464Q656
474 651 474Q647 474 641 464L411 -5Q410 -11 402 -11Q396 -11 393 -4Q324 201 209 471Q207 476 202 476T196 471Q178 338 171 266T164 102Q164 74 181 52T229 24Q246 21 254 17T262 6Q262 -5 233 -5Q196 -5 176 -2Q156 0 139 0Q124 0 104 -2Q65 -5 48 -5Q19 -5
19 6Z" />
<glyph unicode="N" glyph-name="N" horiz-adv-x="792" d="M656 -17T630 0T582 46Q574 58 466 186T308 373Q228 467 214 484Q201 500 193 500Q188 500 186 494T184 479Q179 232 179 104Q179 36 243 24Q260 21 268 17T276 6Q276 -5 247 -5Q210 -5 190 -2Q170 0 153
0Q138 0 118 -2Q79 -5 62 -5Q33 -5 33 6Q33 12 40 16T66 25Q117 39 124 107Q131 172 136 282T142 507Q142 556 118 580T43 620Q34 623 23 629T12 644Q12 652 19 655T35 658L105 655Q153 653 189 653Q197 653 201 650T213 636Q225 619 382 428T606 156Q623 136 631
136Q640 136 641 157Q643 233 643 564Q642 582 623 599T585 619Q540 627 540 639Q540 644 553 647T581 650H638L688 651Q720 653 753 653Q782 653 782 642Q782 628 749 622Q712 615 700 604T686 568Q684 532 684 105Q684 65 688 29L689 8Q689 -17 668 -17Q656 -17
630 0Z" />
<glyph unicode="O" glyph-name="O" horiz-adv-x="763" d="M289 -14T213 27T91 144T45 315Q45 407 85 487T202 615T386 664Q474 664 550 623T672 506T718 335Q718 243 678 163T561 35T377 -14Q289 -14 213 27ZM504 26T563 95T622 286Q622 381 593 457T508 577T370
622Q259 622 200 554T141 365Q141 270 169 193T254 71T392 26Q504 26 563 95Z" />
<glyph unicode="P" glyph-name="P" horiz-adv-x="552" d="M24 -5T24 6Q24 13 32 17T57 24Q96 31 113 47T130 100V522Q130 570 118 593T69 622Q36 628 36 642Q36 653 65 653Q108 653 121 652H163Q178 652 198 653T228 655Q254 658 274 658Q389 658 458 611T527
480Q527 417 503 366T428 284T303 254Q283 254 271 260T258 273Q258 277 263 282T274 287Q277 287 289 286T320 285Q379 285 410 334T441 473Q441 550 396 590T274 630Q210 630 210 588V111Q210 73 225 52T277 24Q294 21 302 17T310 6Q310 -5 281 -5Q249 -5 223
-1Q205 2 183 2Q165 2 147 1T120 -1Q80 -5 53 -5Q24 -5 24 6Z" />
<glyph unicode="Q" glyph-name="Q" horiz-adv-x="763" d="M676 -248T626 -230T523 -173L505 -160Q472 -137 438 -112T365 -54Q340 -33 318 -22T278 -2T250 10Q45 106 45 315Q45 407 85 487T202 615T386 664Q474 664 550 623T672 506T718 335Q718 258 690 189T607
69T475 -2Q467 -4 467 -9Q467 -14 471 -18Q526 -77 598 -129Q648 -165 691 -178T793 -192Q833 -192 849 -185Q861 -181 868 -181Q879 -181 879 -189Q879 -198 876 -203T861 -215Q806 -248 744 -248Q676 -248 626 -230ZM504 26T563 95T622 286Q622 381 593 457T508
577T370 622Q259 622 200 554T141 365Q141 270 169 193T254 71T392 26Q504 26 563 95Z" />
<glyph unicode="R" glyph-name="R" horiz-adv-x="713" d="M591 -21T558 -9T499 33Q453 90 423 130T347 246Q332 271 304 285Q271 301 225 306H223Q210 306 210 286V110Q210 36 277 24Q294 21 302 17T310 6Q310 -5 281 -5Q249 -5 223 -1Q205 2 183 2Q165 2 147
1T120 -1Q80 -5 53 -5Q24 -5 24 6Q24 13 32 17T57 24Q96 31 113 47T130 100V526Q130 568 127 585T111 611T69 622Q53 623 45 629T36 642Q36 653 65 653Q108 653 121 652H163Q178 652 208 654Q262 657 278 657Q388 657 445 616T503 493Q503 385 385 325Q382 324
382 320Q382 317 385 312Q448 217 486 166T588 58Q612 37 637 31T703 25Q718 25 718 14Q718 -5 692 -13T637 -21Q591 -21 558 -9ZM307 329T341 349T394 404T413 477Q413 548 383 587T266 627Q235 627 225 608T212 534Q210 466 210 364Q210 341 222 335T263 329Q307
329 341 349Z" />
<glyph unicode="S" glyph-name="S" horiz-adv-x="465" d="M120 -16T63 32Q52 43 50 52Q46 70 41 135L40 157Q40 164 45 167T60 171Q73 171 76 160Q94 87 132 52T218 17Q270 17 304 50T338 139Q338 178 326 203T291 246T225 291L205 303Q156 333 128 355T80 409T60
482Q60 562 114 613T269 664Q320 664 374 642Q381 639 387 632T395 617Q405 582 410 561T415 518Q415 507 400 507Q391 507 383 511T372 521Q350 576 322 603T252 630Q202 630 170 603T137 516Q137 488 155 464T200 420T277 370Q324 341 353 318T402 261T422 180Q422
91 362 38T204 -16Q120 -16 63 32Z" />
<glyph unicode="T" glyph-name="T" horiz-adv-x="670" d="M185 -5T185 6Q185 13 193 17T218 24Q257 31 276 49T296 102V490Q296 557 292 580T275 606Q262 609 245 609T204 610H157Q131 610 108 600T75 571Q69 559 57 546T34 533Q27 533 27 546Q27 556 32 566Q46
593 52 615T63 671Q66 694 80 694Q83 694 91 683T105 662Q111 652 131 647T175 642H527Q589 642 622 657Q628 660 639 668T661 677Q664 677 666 670T668 654Q668 650 664 626L658 596Q654 584 654 567V555Q654 545 650 534T638 523Q631 523 627 532T619 564Q615
586 594 598T527 610H426Q401 610 392 604T379 576T376 495V102Q376 67 396 49T455 24Q472 21 480 17T488 6Q488 -5 459 -5Q422 -5 395 -2Q363 0 342 0Q317 0 281 -2Q251 -5 214 -5Q185 -5 185 6Z" />
<glyph unicode="U" glyph-name="U" horiz-adv-x="738" d="M241 -14T172 54T103 240V547Q103 580 90 597T57 620Q24 629 24 642Q24 653 53 653L96 652Q128 650 149 650L197 651Q209 652 229 652Q258 652 258 641Q258 635 251 631T225 621Q211 617 197 597T183 549V268Q183
152 240 94T393 36Q493 36 542 105T592 296Q592 357 588 511Q587 553 577 583T547 620Q514 629 514 640Q514 651 543 651L618 650Q637 650 665 652L699 653Q728 653 728 642Q728 629 695 622Q648 613 645 547Q641 486 640 423T637 337Q637 308 635 250Q633 174
598 114T504 20T372 -14Q241 -14 172 54Z" />
<glyph unicode="V" glyph-name="V" horiz-adv-x="672" d="M310 -12T307 -5Q304 2 286 56L103 547Q81 606 33 620Q16 626 8 631T0 642Q0 653 29 653L78 652Q124 650 151 650L219 651Q233 652 253 652Q282 652 282 641Q282 634 274 628T249 621Q184 614 184 582Q184
563 189 549T195 533L339 153Q341 148 344 148Q347 148 350 154L487 514Q497 540 497 561Q497 588 482 602T440 620Q425 622 416 627T407 640Q407 651 436 651L535 650Q559 650 603 652L649 653Q678 653 678 642Q678 629 645 622Q611 614 586 590T547 535L359 79L352
60Q340 21 328 -5Q325 -12 318 -12Q310 -12 307 -5Z" />
<glyph unicode="W" glyph-name="W" horiz-adv-x="916" d="M332 -16T321 12L105 554Q81 606 33 620Q16 626 8 631T0 642Q0 653 29 653L71 652Q101 650 118 650L178 651Q191 652 211 652Q240 652 240 641Q240 634 233 630T207 621Q187 616 187 588Q187 575 190 562T195
545Q240 429 274 348T359 152Q363 142 367 142Q371 142 374 151L452 344Q458 359 458 367Q458 375 450 396L393 538Q381 568 354 590T298 620Q281 625 273 630T265 642Q265 653 294 653L337 652Q369 650 388 650L434 651Q446 652 465 652Q494 652 494 641Q494 636
490 632T476 623Q453 613 453 599Q453 597 455 591Q462 571 475 537T500 478Q501 476 503 471T509 465Q512 465 518 478Q538 523 558 591Q559 594 559 598Q559 607 554 612T538 624Q537 625 532 628T525 634T522 641Q522 652 551 652L583 651Q589 650 603 650L632
651Q650 653 662 653Q691 653 691 642Q691 629 658 622Q628 615 616 606T590 574Q582 560 566 522T537 451Q533 442 531 430T531 413L634 148Q636 144 637 144Q640 144 645 154Q683 255 767 541Q773 559 773 577Q773 612 743 620Q710 629 710 640Q710 651 739 651L811
650Q830 650 862 652L901 653Q930 653 930 642Q930 629 897 622Q844 610 815 534L638 11Q636 5 632 -3T622 -12Q618 -12 613 -6T605 7Q568 90 527 200L482 316Q479 322 478 322Q476 322 471 310Q437 229 414 169T357 15Q353 3 347 -6T335 -16Q332 -16 321 12Z"
/>
<glyph unicode="X" glyph-name="X" horiz-adv-x="707" d="M-5 -5T-5 6Q-5 13 3 18T28 28Q59 37 101 63T171 124L296 280Q311 301 311 314Q311 327 301 341L167 529Q133 576 108 594T51 622Q34 628 26 633T18 644Q18 655 47 655Q60 655 104 653Q118 652 139 651T190
650L258 651Q271 652 289 652Q318 652 318 641Q318 635 311 631T285 621Q255 612 245 607T234 590Q234 574 267 528L358 400Q369 385 374 385Q379 385 388 397L495 538Q521 571 521 589Q521 612 476 620Q464 623 454 628T443 640Q443 651 472 651L553 650Q575 650
592 651T620 653Q647 656 667 656Q696 656 696 645Q696 638 689 634T663 625Q637 618 606 589T533 510L418 374Q410 365 406 358T401 346Q401 342 404 334L559 111Q582 78 610 56T666 26Q684 21 691 17T699 6Q699 -5 670 -5L616 -3Q558 1 527 1L424 0Q395 0 395
11Q395 22 428 31Q445 36 458 48T472 78Q472 95 460 111L356 262Q348 273 343 273Q339 273 334 267L199 93Q190 81 190 70Q190 56 202 46T235 30Q253 25 260 21T268 10Q268 -1 239 -1Q221 -1 209 0L150 1Q125 1 107 0T77 -2Q49 -5 24 -5Q-5 -5 -5 6Z" />
<glyph unicode="Y" glyph-name="Y" horiz-adv-x="578" d="M153 -5T153 6Q153 13 161 17T186 24Q264 38 264 108V256Q264 273 256 294T239 330L122 522Q67 610 33 620Q16 626 8 631T0 642Q0 653 29 653L75 652Q119 650 146 650L194 651Q206 652 226 652Q255 652
255 641Q255 629 222 621Q205 617 198 612T190 596Q190 583 203 560L295 390Q315 352 323 352Q329 352 335 359T356 390Q386 438 422 502Q426 510 440 534Q458 564 458 585Q458 614 417 620Q406 622 395 628T384 640Q384 651 413 651L488 650Q516 650 554 652L592
653Q621 653 621 642Q621 636 608 630T568 617Q544 610 528 592T480 526Q427 444 369 350Q351 320 348 306T344 260V108Q344 74 364 53T423 24Q440 21 448 17T456 6Q456 -5 427 -5Q390 -5 363 -2Q331 0 310 0Q285 0 249 -2Q219 -5 182 -5Q153 -5 153 6Z" />
<glyph unicode="Z" glyph-name="Z" horiz-adv-x="603" d="M469 -5T363 -3L231 -2L112 -3H35Q31 -3 30 3T28 11Q28 18 47 47T86 104Q102 127 149 190Q242 317 301 400T434 593Q438 599 438 601Q438 608 419 609Q347 611 273 611Q196 611 171 609Q143 606 114 588T73
535Q67 521 61 512T45 503Q36 503 36 514Q36 522 43 541Q67 612 70 659Q71 676 85 676Q88 676 99 671T116 662Q128 657 153 652T202 646H328Q448 646 559 649Q564 649 568 642T570 631L509 550Q385 382 321 292T171 70Q168 66 168 58Q168 52 171 47T179 41Q227
36 292 36Q355 36 433 41Q477 45 507 71T557 150Q560 157 566 164T579 171Q588 171 588 158Q588 149 574 89T551 12Q547 3 544 -1T533 -5Q469 -5 363 -3Z" />
<glyph unicode="[" glyph-name="bracketleft" horiz-adv-x="331" d="M122 -200T116 -196T110 -175V668Q110 685 113 692T123 700T148 702L293 701Q311 701 311 688Q311 675 285 673L206 667Q199 666 191 658T183 642V-121Q183 -134 190 -143T206 -154L285 -167Q311
-171 311 -185Q311 -200 285 -200H141Q122 -200 116 -196Z" />
<glyph unicode="\" glyph-name="backslash" horiz-adv-x="399" d="M348 -62T339 -59T326 -47L29 648Q28 650 28 654Q28 665 42 665Q57 665 66 662T81 648L378 -47L379 -51Q379 -56 375 -59T362 -62Q348 -62 339 -59Z" />
<glyph unicode="]" glyph-name="bracketright" horiz-adv-x="331" d="M209 -200T215 -196T221 -175V668Q221 685 218 692T208 700T183 702L38 701Q20 701 20 688Q20 675 46 673L125 667Q132 666 140 658T148 642V-121Q148 -134 141 -143T125 -154L46 -167Q20 -171
20 -185Q20 -200 46 -200H190Q209 -200 215 -196Z" />
<glyph unicode="^" glyph-name="asciicircum" horiz-adv-x="500" d="M53 284T51 287T48 295Q48 301 51 305L248 603H251L449 305Q452 301 452 295Q452 284 443 284Q432 284 420 289T402 302L254 514Q250 519 249 519T244 514L98 303Q92 295 80 290T57 284Q53 284 51 287Z" />
<glyph unicode="_" glyph-name="underscore" horiz-adv-x="500" d="M492 -132T496 -135T501 -143Q501 -154 491 -168T469 -182H14Q9 -182 5 -179T0 -170Q0 -159 6 -146T24 -132H487Q492 -132 496 -135Z" />
<glyph unicode="`" glyph-name="grave" horiz-adv-x="200" d="M161 457T140 478Q119 499 84 540T32 607Q30 609 26 615T22 628Q22 638 36 643T71 649Q78 649 85 644T98 631Q115 602 140 555T175 484Q179 473 179 466Q179 457 171 457Q161 457 140 478Z" />
<glyph unicode="a" glyph-name="a" horiz-adv-x="399" d="M100 -14T81 -1T50 33T37 72Q37 103 53 121T108 155L210 197Q229 205 233 211T238 237L240 301Q241 328 225 346T181 365Q166 365 151 360T126 347Q116 340 116 318L117 300Q117 292 92 279T51 265Q46
265 43 267T40 274Q40 290 50 308T80 343Q114 374 156 394T229 414Q265 414 288 389T311 325L306 85Q305 64 315 51T342 38Q367 38 379 49Q384 54 387 54Q392 54 395 51T398 43Q398 39 395 33T387 21Q371 5 353 -4T318 -14Q272 -14 245 38H242Q209 11 179 -1T117
-14Q100 -14 81 -1ZM199 34T223 58Q229 64 232 73T236 99L238 148V154Q238 162 236 165T229 169Q223 169 209 164Q159 146 137 126T115 87Q115 62 129 48T164 34Q199 34 223 58Z" />
<glyph unicode="b" glyph-name="b" horiz-adv-x="515" d="M221 -14T173 -1Q167 1 161 3T147 7Q138 9 127 12T113 15Q104 15 91 2Q86 -3 82 -3Q77 -3 73 0T68 9Q68 18 71 33Q75 63 75 81V566Q75 592 63 611T29 639Q16 646 16 654Q16 662 28 664Q45 667 80 680T133
702Q139 705 142 705Q144 705 146 703T148 698Q148 695 147 666T145 593V388Q145 369 147 363T154 355Q185 381 226 397T300 414Q350 414 391 388T456 317T480 217Q480 149 452 97T374 15T259 -14Q221 -14 173 -1ZM338 17T371 67T405 195Q405 236 390 277T343 345T267
372Q194 372 145 326V132Q145 81 186 49T282 17Q338 17 371 67Z" />
<glyph unicode="c" glyph-name="c" horiz-adv-x="407" d="M163 -15T123 10T59 80T35 180Q35 244 63 297T140 382T246 414Q311 414 360 379Q372 370 372 360Q372 347 357 333T329 319Q324 319 319 322T308 330Q283 349 257 363T214 377Q165 377 135 331T104 212Q104
166 124 128T179 67T256 45Q285 45 306 54T351 88Q356 93 361 93Q366 93 369 89T372 79Q372 68 357 48Q333 17 296 1T213 -15Q163 -15 123 10Z" />
<glyph unicode="d" glyph-name="d" horiz-adv-x="506" d="M355 -19T351 -15T346 -9L348 17Q351 35 351 51V57Q333 29 299 8T220 -14Q165 -14 123 15T58 91T35 190Q35 249 62 300T141 383T260 414Q279 414 299 411T332 403Q341 400 345 400Q348 400 350 406T352
424V566Q352 604 340 619T302 639Q293 641 293 652Q293 661 301 664Q354 677 380 688T409 701Q417 704 422 704Q428 704 429 698Q429 692 426 660T422 562V110Q422 75 427 60T443 45Q460 45 486 48H491Q504 48 504 39Q504 32 500 27T490 21Q436 14 373 -13Q362
-19 357 -19Q355 -19 351 -15ZM282 38T307 51T351 87L352 267Q352 294 337 320T293 362T229 379Q202 379 174 364T126 312T106 213Q106 144 132 105T192 52T256 38Q282 38 307 51Z" />
<glyph unicode="e" glyph-name="e" horiz-adv-x="390" d="M159 -15T118 12T53 88T30 203Q30 259 56 308T127 385T223 414Q283 414 321 379T360 288Q360 257 330 257H119Q105 257 100 250T94 220Q94 173 114 133T170 70T248 46Q307 46 346 91Q352 99 357 99Q365
99 365 89Q365 70 347 47Q325 18 289 2T213 -15Q159 -15 118 12ZM212 288Q259 288 286 293Q294 294 294 315Q294 344 269 364T208 385Q186 385 163 372T124 338T109 298Q109 288 121 288H212Z" />
<glyph unicode="f" glyph-name="f" horiz-adv-x="318" d="M24 -3T24 8Q24 15 29 18T47 24Q71 29 80 38T90 68V350Q59 350 38 352Q35 353 30 359T24 370Q24 373 31 376L90 406Q90 513 124 580T209 677T310 706Q364 706 392 690T420 646Q420 627 410 617T386 606Q379
606 374 610T362 620T352 629Q336 645 317 655T268 665Q219 665 190 623T160 498V410Q160 400 171 400H296Q301 400 305 397T309 389Q309 372 303 360Q300 352 294 352H179Q168 352 164 349T160 339V68Q160 47 173 38T226 24Q249 21 249 8Q249 -3 229 -3Q199 -3
175 0Q143 2 127 2Q109 2 89 0Q71 -3 44 -3Q24 -3 24 8Z" />
<glyph unicode="g" glyph-name="g" horiz-adv-x="435" d="M433 388T437 384T441 373Q441 364 431 354Q426 349 423 349H396Q369 349 366 341Q360 323 360 295Q360 245 338 202T280 132T201 106Q172 106 148 116Q130 107 118 95T106 74Q106 32 236 24Q328 19 373
-6T418 -77Q418 -127 385 -177T300 -258T195 -290Q110 -290 61 -258T11 -170Q11 -144 19 -127T44 -95L84 -63L128 -28Q81 -19 61 -2T40 44Q40 62 63 81Q87 99 100 109T119 129Q83 150 61 184T39 258Q39 303 63 339T127 395T213 416Q243 416 285 402Q292 399 306
395Q328 389 342 387T373 385Q384 385 406 387L428 388Q433 388 437 384ZM244 141T269 179T295 275Q295 303 282 329T246 370T200 386Q177 386 157 370T124 327T111 270Q111 236 124 206T159 159T207 141Q244 141 269 179ZM357 -76T322 -59T207 -37Q178 -35 164
-33Q121 -62 104 -89T86 -155Q86 -195 121 -222T209 -250Q268 -250 304 -223Q329 -204 343 -174T357 -109Q357 -76 322 -59Z" />
<glyph unicode="h" glyph-name="h" horiz-adv-x="515" d="M19 -3T19 8Q19 14 24 17T42 24Q62 30 73 38T85 65V566Q85 630 41 638Q32 640 32 652Q32 661 40 664Q119 689 151 703Q155 705 157 705Q164 705 164 698Q164 693 160 668T155 562V388Q155 373 156 366T162
351Q247 414 314 414Q363 414 395 375T428 278V68Q428 36 469 24Q481 21 486 18T492 8Q492 -3 472 -3Q447 -3 430 0Q410 2 394 2Q378 2 358 0Q342 -3 316 -3Q296 -3 296 8Q296 14 300 16T319 24Q337 30 347 40T358 68V272Q358 296 344 316T309 349T265 362Q244
362 220 356T182 340Q166 327 161 313T155 268V65Q156 47 166 39T194 24Q205 21 210 18T216 8Q216 2 212 0T196 -3Q170 -3 155 0Q137 2 120 2Q104 2 82 0Q66 -3 39 -3Q19 -3 19 8Z" />
<glyph unicode="i" glyph-name="i" horiz-adv-x="245" d="M24 -3T24 8Q24 15 29 18T47 24Q70 30 80 37T90 62V279Q90 345 45 352Q35 353 35 365Q35 376 44 377Q105 391 149 427Q158 434 163 434Q169 434 169 429Q169 418 166 391Q165 379 163 347T160 294V62Q160
46 170 38T203 24Q215 21 220 18T226 8Q226 -3 206 -3Q181 -3 164 0Q142 2 125 2Q109 2 87 0Q71 -3 44 -3Q24 -3 24 8ZM103 516T89 530T74 566Q74 588 88 602T124 617Q146 617 160 603T175 566Q175 545 161 531T124 516Q103 516 89 530Z" />
<glyph unicode="j" glyph-name="j" horiz-adv-x="226" d="M-6 -287T-13 -285T-20 -277Q-20 -272 -16 -267T-9 -260Q32 -250 57 -197Q89 -130 89 69V279Q89 343 43 352Q39 353 37 356T35 365Q35 369 37 372T42 377Q71 384 93 395T128 416T146 427Q158 434 159 434Q166
434 166 429Q159 357 159 275V91Q159 22 154 -38T129 -152Q117 -185 94 -216T46 -267T1 -287Q-6 -287 -13 -285ZM95 516T81 530T66 566Q66 588 80 602T116 617Q138 617 152 603T167 566Q167 545 153 531T116 516Q95 516 81 530Z" />
<glyph unicode="k" glyph-name="k" horiz-adv-x="469" d="M19 -3T19 8Q19 14 23 16T33 21T42 24Q62 30 73 38T85 65V566Q85 601 75 617T40 639Q31 641 31 652Q31 662 39 664Q73 672 95 680T149 702Q155 705 158 705Q164 705 164 696Q164 689 160 656T155 562V234Q155
225 160 225Q173 225 196 245Q264 304 302 348Q311 358 311 363Q311 372 285 378Q278 380 276 382T273 388Q273 393 279 396T295 400H344Q358 400 400 407Q423 412 435 412Q449 412 449 402Q449 391 424 384Q396 376 358 353Q349 347 309 314T230 247Q224 241 224
237Q224 233 227 230Q261 188 306 140T374 72Q389 57 410 45T449 26Q453 25 461 22T474 16T479 8Q479 -3 459 -3L378 -2Q310 0 272 0Q254 0 254 9Q254 19 271 25Q284 29 291 34T298 48Q298 53 291 62L170 199Q164 206 160 206Q155 206 155 199Q154 180 154 135Q154
88 155 65Q155 46 164 38T190 24Q193 23 199 21T209 16T213 8Q213 2 205 0T190 -3Q165 -3 153 0Q137 2 120 2Q103 2 83 0Q68 -3 42 -3Q19 -3 19 8Z" />
<glyph unicode="l" glyph-name="l" horiz-adv-x="240" d="M19 -3T19 6Q19 13 24 16T42 24Q64 31 74 37T85 62V566Q85 629 39 639Q35 640 33 643T31 652Q31 662 38 664Q77 673 127 694L151 703Q155 705 157 705Q159 705 160 703T162 698Q162 692 159 660T155 562V62Q155
44 165 38T198 24Q210 20 215 17T221 6Q221 -3 201 -3Q175 -3 158 0Q136 2 120 2Q104 2 82 0Q66 -3 39 -3Q19 -3 19 6Z" />
<glyph unicode="m" glyph-name="m" horiz-adv-x="778" d="M24 -3T24 8Q24 14 29 17T47 24Q69 31 79 37T90 62V277Q90 309 83 327T52 349Q43 351 43 362Q43 372 51 374Q78 381 94 388T131 411L153 426Q154 426 156 428T162 430Q164 430 166 428T168 423L166 402Q165
394 164 383T163 359Q163 349 165 347H167Q236 414 323 414Q360 414 384 398T423 345H426Q504 414 589 414Q635 414 662 373T689 275V62Q689 44 699 38T732 24Q744 20 749 17T755 8Q755 2 751 0T735 -3Q708 -3 693 0Q673 2 656 2Q638 2 618 0Q600 -3 573 -3Q553
-3 553 8Q553 15 558 18T576 24Q597 29 608 36T619 62V272Q619 309 595 338T539 367Q486 367 452 340Q424 318 424 268V62Q424 44 436 37T469 24Q492 19 492 8Q492 -3 472 -3Q445 -3 428 0Q406 2 390 2Q372 2 352 0Q334 -3 307 -3Q287 -3 287 8Q287 14 291 16T301
21T310 24Q333 31 343 37T354 62V272Q354 309 330 338T274 367Q221 367 187 340Q160 320 160 268V62Q160 44 170 38T203 24Q206 23 212 21T222 16T226 8Q226 -3 206 -3Q180 -3 163 0Q141 2 125 2Q109 2 87 0Q71 -3 44 -3Q24 -3 24 8Z" />
<glyph unicode="n" glyph-name="n" horiz-adv-x="528" d="M24 -3T24 8Q24 15 29 17T47 24Q68 29 79 36T90 62V277Q90 309 83 326T53 349Q43 352 43 362Q43 373 52 374Q83 382 104 394T152 425Q159 430 163 430Q168 430 168 423L166 402Q165 394 164 383T163 359Q163
349 165 347Q201 381 240 397T326 414Q374 414 406 374T439 275V62Q439 44 449 38T482 24Q494 20 499 17T505 6Q505 -3 485 -3Q458 -3 442 0Q422 2 405 2Q389 2 367 0Q351 -3 323 -3Q303 -3 303 6Q303 13 308 16T326 24Q348 31 358 37T369 62V272Q369 315 345 340T279
366Q217 366 168 326Q160 318 160 303V62Q160 44 171 37T203 24Q215 21 220 18T226 8Q226 -3 206 -3Q180 -3 163 0Q141 2 125 2Q109 2 87 0Q71 -3 44 -3Q24 -3 24 8Z" />
<glyph unicode="o" glyph-name="o" horiz-adv-x="495" d="M179 -14T134 12T62 84T35 187Q35 242 64 295T144 381T254 414Q311 414 358 387T432 313T460 213Q460 153 434 101T357 18T234 -14Q179 -14 134 12ZM330 16T358 71Q378 110 378 189Q378 237 360 282T310
355T237 383Q208 383 187 374T149 343Q131 320 124 287T117 210Q117 160 135 116T184 44T255 16Q330 16 358 71Z" />
<glyph unicode="p" glyph-name="p" horiz-adv-x="519" d="M19 -285T19 -276Q19 -269 24 -266T42 -258Q64 -251 74 -245T85 -220V287Q85 304 73 329T39 360Q35 361 33 364T31 373Q31 383 38 385Q82 395 115 408T154 425L156 426Q158 426 160 423T162 417L160 391Q157
373 157 357Q157 349 158 348Q169 359 196 374T257 402T320 414Q369 414 406 387T464 317T484 225Q484 166 454 111T372 21T259 -14Q237 -14 205 -5T159 18Q157 18 156 -2T155 -33V-220Q155 -235 168 -242T194 -253T213 -258Q225 -262 230 -265T236 -276Q236 -285
214 -285Q187 -285 164 -282Q138 -280 120 -280Q104 -280 82 -282Q66 -285 40 -285Q19 -285 19 -276ZM298 17T328 34T381 92T404 193Q404 294 361 331T268 369Q246 369 220 360T176 337T158 317Q158 272 156 212Q155 192 155 166Q155 127 173 93T219 38T274 17Q298
17 328 34Z" />
<glyph unicode="q" glyph-name="q" horiz-adv-x="522" d="M311 -285T311 -276Q311 -269 316 -266T334 -258Q356 -251 366 -245T377 -220V13Q377 43 371 43Q370 43 367 43T362 41Q342 23 306 5T235 -14Q182 -14 136 8T63 74T35 178Q35 248 66 301T153 384T282 414Q335
414 371 404T410 392Q420 392 425 397T436 417Q440 421 443 421Q448 421 453 418T459 411Q459 404 456 389Q447 340 447 295V-220Q447 -236 458 -243T482 -253T499 -258Q511 -262 516 -265T522 -276Q522 -285 502 -285Q475 -285 454 -282Q430 -280 412 -280Q396
-280 374 -282Q358 -285 331 -285Q311 -285 311 -276ZM303 39T333 51T378 80Q378 250 377 275Q375 320 341 351T257 382Q220 382 188 361T137 300T117 205Q117 143 141 106T201 54T272 39Q303 39 333 51Z" />
<glyph unicode="r" glyph-name="r" horiz-adv-x="334" d="M29 -3T29 8Q29 15 34 17T52 24Q90 33 90 62V277Q90 307 81 325T49 349Q45 350 42 354T39 362Q39 366 42 369T48 374Q88 387 147 423Q158 430 162 430Q167 430 167 423Q167 396 164 348Q164 346 166 346Q191
376 222 395T281 414Q302 414 315 405T329 382Q329 366 317 348T290 330Q280 330 262 339Q259 340 249 344T230 348Q201 348 181 329T161 264V62Q161 49 174 41T214 24Q226 20 231 17T237 8Q237 -3 217 -3Q190 -3 170 0Q146 2 130 2Q114 2 92 0Q76 -3 49 -3Q29
-3 29 8Z" />
<glyph unicode="s" glyph-name="s" horiz-adv-x="323" d="M113 -14T86 -5T40 22Q32 38 29 102Q29 111 42 111Q53 111 54 104Q66 58 93 36T153 13Q182 13 202 32T223 81Q223 107 206 126T142 175Q90 207 69 234T47 299Q47 349 82 381T182 414Q210 414 230 409T262
395Q270 384 275 361T281 316Q281 309 271 309Q265 309 259 311T252 318Q238 352 219 369T171 386Q145 386 126 370T107 327Q107 303 121 286T176 245Q239 209 265 181T291 108Q291 54 250 20T144 -14Q113 -14 86 -5Z" />
<glyph unicode="t" glyph-name="t" horiz-adv-x="314" d="M139 -14T112 16T85 105V337Q85 346 79 349T53 352H47Q42 352 39 358T35 372Q35 374 37 377T42 383Q96 421 131 463Q135 468 139 471T148 475Q162 475 161 464L156 419V415Q156 406 162 403T180 400H294Q298
400 301 394T304 378Q304 369 301 361T294 352H195Q168 352 162 348T155 324V127Q155 86 172 64T221 41Q249 41 265 45T295 59L299 61Q306 61 306 47Q306 41 288 26T244 -2T189 -14Q139 -14 112 16Z" />
<glyph unicode="u" glyph-name="u" d="M359 -19T359 -11L361 16Q364 36 364 51V57Q326 19 286 3T199 -14Q148 -14 117 17T85 105V308Q85 330 75 343T42 365Q29 369 29 381Q29 395 44 397Q75 399 93 402T143 413L151 414Q162 414 161 400Q155 354 155 323V128Q155
92 181 65T239 37Q269 37 287 40T323 57Q341 70 354 87T368 132V315Q368 342 346 353T301 365Q280 365 280 382Q280 397 301 397Q344 398 369 401T424 413Q430 415 434 415Q439 415 443 412T447 404L445 395Q443 384 441 364T438 326V95Q438 45 456 45L479 47L502
48Q517 48 517 35Q517 27 514 25T503 21Q469 16 443 8T386 -13Q374 -19 366 -19Q359 -19 359 -11Z" />
<glyph unicode="v" glyph-name="v" horiz-adv-x="438" d="M209 -21T196 17Q191 27 180 62L171 87Q159 120 114 231L74 329Q67 347 53 361T23 380Q13 384 9 387T5 396Q5 405 25 405Q51 405 64 402Q80 400 98 400Q115 400 133 402Q148 405 173 405Q193 405 193 396Q193
389 187 386T170 378Q160 374 155 363T150 337Q150 321 154 310L233 100Q235 99 236 100L312 295Q320 316 320 336Q320 355 314 363T294 378Q280 383 276 386T271 396Q271 405 291 405Q295 405 313 403Q352 400 364 400Q376 400 403 403Q415 405 423 405Q443 405
443 396Q443 390 438 386T420 378Q404 373 386 354T358 311L280 123Q272 103 260 71T242 24Q240 18 232 2T220 -21H214Q209 -21 196 17Z" />
<glyph unicode="w" glyph-name="w" horiz-adv-x="685" d="M221 -23T219 -16L80 329Q73 348 59 360T28 378Q16 382 11 385T5 396Q5 405 25 405Q37 405 61 403Q79 400 98 400Q119 400 140 403Q166 405 181 405Q188 405 194 403T201 396Q201 389 196 386T178 378Q168
375 163 364T157 338Q157 325 162 312L240 111Q241 107 245 107Q249 107 250 111L318 273Q326 292 326 321Q326 341 311 355T275 378Q263 382 258 385T252 396Q252 405 272 405Q278 405 296 403Q335 400 347 400Q355 400 400 403Q422 405 431 405Q451 405 451 396Q451
389 446 386T428 378Q412 373 403 366T394 342Q394 329 401 312L476 119Q481 108 484 108Q488 108 492 118L568 295Q575 310 575 334Q575 350 564 362T540 378Q528 382 523 385T517 396Q517 405 537 405Q550 405 570 403Q586 400 612 400Q628 400 649 403Q661 405
670 405Q690 405 690 396Q690 389 685 386T667 378Q653 374 639 356T614 312L477 -16Q474 -23 468 -23Q464 -23 460 -16L356 242Q353 250 350 251Q347 251 343 241L234 -16Q231 -23 226 -23Q221 -23 219 -16Z" />
<glyph unicode="x" glyph-name="x" horiz-adv-x="430" d="M10 -4T10 5Q10 12 16 16T33 23Q50 28 65 40T100 80L177 187Q183 194 183 200Q183 205 179 210L97 335Q85 355 76 364T51 377Q40 380 34 384T28 395Q28 404 48 404Q69 404 85 402Q105 400 130 400L156
401Q163 402 181 402H184Q204 402 204 393Q204 388 200 385T186 379Q176 376 171 373T165 362Q165 351 178 330L224 261Q228 254 233 261L284 338Q292 349 292 360Q292 372 279 376Q267 380 262 383T256 394Q256 403 276 403Q281 403 299 402T329 400Q351 400 368
402T392 405Q412 405 412 396Q412 389 407 386T389 378Q341 364 318 331L255 236Q251 230 256 223L353 65Q365 46 376 37T402 23Q413 20 419 16T425 5Q425 -4 405 -4Q386 -4 368 -2Q348 0 321 0L284 -1Q271 -2 248 -2Q225 -2 225 8Q225 16 231 20T250 28Q278 36
278 52Q278 60 272 70L213 166Q212 167 210 167T207 166L141 67Q136 60 136 48Q136 41 139 35T150 26Q162 22 167 19T173 8Q173 -1 153 -1Q147 -1 132 0T97 1Q84 1 51 -2Q37 -4 30 -4Q10 -4 10 5Z" />
<glyph unicode="y" glyph-name="y" horiz-adv-x="438" d="M42 -285T28 -275T13 -244Q13 -225 22 -212T46 -199Q54 -199 67 -202T86 -205Q98 -205 105 -194Q124 -165 147 -118T190 -16Q193 -7 193 7Q193 25 189 36L73 329Q56 370 28 378Q16 382 11 385T5 396Q5
405 25 405Q51 405 64 402Q82 400 98 400Q115 400 133 402Q148 405 174 405Q181 405 187 402T194 394Q194 387 185 381T165 372Q154 369 150 362T145 340Q145 331 153 312L234 112Q236 106 240 106Q243 106 245 112L314 295Q317 302 319 313T322 332Q322 349 317
357T302 370Q273 383 273 394Q273 399 279 402T293 405Q298 405 316 403Q352 400 364 400Q378 400 402 403Q414 405 423 405Q443 405 443 396Q443 389 438 386T420 378Q405 373 388 354T361 311L225 -13L210 -50Q148 -200 129 -244Q120 -264 103 -274T64 -285Q42
-285 28 -275Z" />
<glyph unicode="z" glyph-name="z" horiz-adv-x="377" d="M35 -5T30 1T25 12Q25 15 37 34T62 70Q161 212 253 358L255 363Q255 368 244 368L145 371Q132 372 121 366T101 352Q92 343 72 315Q57 294 57 294Q54 291 48 291Q41 291 37 294T35 304Q41 321 47 351T54
398Q54 405 59 410T69 416Q73 416 84 407Q91 401 127 401L165 402Q260 402 351 405Q355 405 357 401T358 393Q332 361 320 343L125 48Q123 45 123 41Q123 37 126 35T134 33H252Q274 33 297 56Q312 71 352 129Q355 134 361 134Q366 134 370 131T374 122Q374 117
363 75T344 9Q341 -5 328 -5L284 -4Q208 0 119 0Q115 0 70 -3L39 -5Q35 -5 30 1Z" />
<glyph unicode="{" glyph-name="braceleft" horiz-adv-x="376" d="M253 -147T198 -117T143 -21Q143 23 150 74Q156 128 156 157Q156 198 130 227T69 265Q62 267 56 271T50 282Q50 287 55 292T71 301Q156 323 156 404Q156 433 150 487Q143 538 143 582Q143 647
200 679T338 715Q345 715 350 711T356 700Q356 688 330 686Q277 679 253 659T228 587Q228 558 231 529T235 493Q241 441 241 414Q241 370 203 335T123 283Q119 281 125 279Q144 274 172 254T220 206T241 147Q241 120 235 68Q234 61 231 32T228 -26Q228 -78 252
-99T327 -125Q341 -126 347 -128T353 -137Q353 -144 348 -148T335 -152Q253 -147 198 -117Z" />
<glyph unicode="|" glyph-name="bar" horiz-adv-x="260" d="M108 -289T104 -285T100 -275V676Q100 690 118 698T146 707Q151 707 155 703T160 694V-265Q160 -278 143 -283T112 -289Q108 -289 104 -285Z" />
<glyph unicode="}" glyph-name="braceright" horiz-adv-x="376" d="M123 -147T178 -117T233 -21Q233 23 226 74Q220 128 220 157Q220 198 246 227T307 265Q314 267 320 271T326 282Q326 287 321 292T305 301Q220 323 220 404Q220 433 226 487Q233 538 233 582Q233
647 176 679T38 715Q31 715 26 711T20 700Q20 688 46 686Q99 679 123 659T148 587Q148 558 145 529T141 493Q135 441 135 414Q135 370 173 335T253 283Q257 281 251 279Q232 274 204 254T156 206T135 147Q135 120 141 68Q142 61 145 32T148 -26Q148 -78 124 -99T49
-125Q35 -126 29 -128T23 -137Q23 -144 28 -148T41 -152Q123 -147 178 -117Z" />
<glyph unicode="~" glyph-name="asciitilde" horiz-adv-x="500" d="M314 260T294 267T243 291Q218 305 199 312T160 320Q135 320 116 306T83 279T69 265Q63 265 57 269T50 279Q50 294 66 319T111 362T171 381Q194 381 213 373T259 350Q284 335 301 327T337 319Q359
319 379 334T414 366T430 382Q435 382 442 377T450 362Q450 342 432 318T388 277T337 260Q314 260 294 267Z" />
<glyph unicode="&#xa0;" glyph-name="uni00A0" horiz-adv-x="200" />
<glyph unicode="&#xa1;" glyph-name="exclamdown" horiz-adv-x="250" d="M115 275T111 267T105 236Q95 144 87 38T79 -114Q79 -136 92 -152T126 -169Q146 -169 158 -153T171 -114Q171 -47 141 236Q139 253 135 264T123 275Q115 275 111 267ZM100 494T83 477T65
434Q65 409 82 392T125 374Q150 374 167 391T185 434Q185 459 168 476T125 494Q100 494 83 477Z" />
<glyph unicode="&#xa2;" glyph-name="cent" horiz-adv-x="422" d="M195 -13T190 -9T186 2L194 78Q152 85 116 114T57 186T35 278Q35 334 61 383T133 465T238 502L242 562Q243 570 249 574T264 579Q270 579 274 574T277 562L273 503Q344 499 380 455Q384 450 384
443Q384 433 371 421T347 409Q340 409 334 412T326 419Q315 439 302 451T269 469L235 136Q240 135 250 135Q289 135 318 143T365 178Q368 183 374 183Q379 183 383 180T387 171Q387 168 386 167Q358 121 320 100T228 76L221 2Q220 -5 215 -9T202 -13Q195 -13 190
-9ZM235 474H233Q195 474 165 450T119 388T102 312Q102 248 128 204T200 143L235 474Z" />
<glyph unicode="&#xa3;" glyph-name="sterling" horiz-adv-x="490" d="M454 167T464 151T475 111Q475 76 454 42T397 -14T319 -36Q276 -36 244 -22T164 26Q148 37 128 46T100 55Q95 55 81 40T56 6Q48 -9 36 -17T13 -24Q3 -24 -3 -16T-10 6Q-10 36 18 59T86 91Q90
92 92 95T97 103Q118 143 128 303L45 297Q40 297 36 301T31 309Q31 316 38 323T55 331L130 336V341Q134 413 158 478T230 586T350 629Q397 629 423 605T450 549Q450 525 438 508T406 491Q399 491 397 494T394 505L395 527Q394 557 377 578T332 600Q281 600 255
537T218 342L351 351Q356 351 360 347T364 339Q364 333 354 326T333 317L215 309Q207 245 182 183T135 102Q132 100 133 97T139 93Q175 93 203 85T271 60Q306 46 328 39T375 32Q402 32 418 45T434 77Q434 94 424 122Q418 144 418 148Q418 155 423 161T435 167Q454
167 464 151Z" />
<glyph unicode="&#xa4;" glyph-name="currency" horiz-adv-x="506" d="M60 57T50 67T40 87Q40 92 43 95L100 152Q61 203 61 270Q61 337 100 387L43 444Q40 447 40 451Q40 461 50 471T71 482Q76 482 79 479L134 424Q188 465 253 465Q321 465 371 424L427 480Q430
483 435 483Q444 483 454 473T465 453Q465 447 461 443L406 388Q445 337 445 270Q445 203 406 152L463 95Q466 92 466 88Q466 78 456 68T435 57Q430 57 427 60L371 116Q321 75 253 75Q185 75 135 116L78 60Q75 57 70 57Q60 57 50 67ZM292 125T324 144T376 197T395
270Q395 309 376 342T325 395T253 415Q214 415 182 396T130 343T111 270Q111 231 130 198T181 145T253 125Q292 125 324 144Z" />
<glyph unicode="&#xa5;" glyph-name="yen" horiz-adv-x="570" d="M153 -5T153 6Q153 13 161 17T186 24Q264 38 264 108L265 197H139Q134 197 130 200T125 209Q125 216 132 224T149 232H265V256Q265 266 263 280H139Q134 280 130 284T125 292Q125 299 132 307T149
315H255L122 522Q96 562 75 588T33 620Q16 626 8 631T0 642Q0 653 29 653L75 652Q119 650 146 650L194 651Q206 652 226 652Q255 652 255 641Q255 635 248 631T222 621Q194 611 194 588Q194 574 203 560L296 395Q309 373 315 365T326 356Q331 356 337 364T357 395Q366
409 394 453T440 534Q447 549 447 568Q447 587 439 601T417 620Q384 629 384 640Q384 651 413 651L488 650Q511 650 547 652L584 653Q613 653 613 642Q613 629 580 622Q557 617 530 588T480 526Q446 475 412 419T368 346Q353 324 350 315H472Q477 315 481 312T485
304Q485 296 475 288T454 280H345V232H471Q484 232 484 221Q484 213 474 205T453 197H345V108Q345 74 365 53T423 24Q440 21 448 17T456 6Q456 -5 427 -5Q390 -5 363 -2Q331 0 310 0Q285 0 249 -2Q219 -5 182 -5Q153 -5 153 6Z" />
<glyph unicode="&#xa6;" glyph-name="brokenbar" horiz-adv-x="260" d="M108 276T104 283T100 299V674Q100 688 118 696T146 705Q151 705 155 701T160 692V297Q160 290 141 283T112 276Q108 276 104 283ZM108 -290T104 -286T100 -276V156Q100 163 119 171T146
179Q151 179 155 172T160 157V-266Q160 -279 143 -284T112 -290Q108 -290 104 -286Z" />
<glyph unicode="&#xa7;" glyph-name="section" horiz-adv-x="400" d="M97 -148T79 -139T61 -116Q61 -106 67 -91T89 -64Q93 -62 95 -62Q100 -62 111 -70Q123 -81 142 -87T180 -94Q205 -94 218 -73T232 -12Q232 17 208 48T136 131L118 149Q71 197 48 241T24 329Q24
391 40 432T90 513Q103 562 141 601T229 640Q248 640 269 634T299 621Q311 611 311 603Q311 600 306 588T291 566T273 556Q266 556 260 562Q222 596 198 596Q170 596 154 578T137 533Q137 506 166 467T241 385Q301 331 323 280T346 159Q346 102 324 44T262 -61T177
-137Q159 -148 123 -148Q97 -148 79 -139ZM287 47T291 47T296 51Q307 93 307 124Q307 174 286 215T217 305Q164 359 134 393T94 458Q93 462 89 462T84 458Q73 416 73 385Q73 335 94 294T163 204Q216 150 246 116T286 51Q287 47 291 47Z" />
<glyph unicode="&#xa8;" glyph-name="dieresis" horiz-adv-x="300" d="M43 508T28 523T12 558Q12 577 27 592T62 608Q81 608 96 593T112 558Q112 539 97 524T62 508Q43 508 28 523ZM220 508T205 523T189 558Q189 577 204 592T239 608Q258 608 273 593T289 558Q289
539 274 524T239 508Q220 508 205 523Z" />
<glyph unicode="&#xa9;" glyph-name="copyright" horiz-adv-x="665" d="M263 24T194 65T84 175T43 327Q43 409 84 478T194 589T346 630Q428 630 497 589T608 479T649 327Q649 245 608 176T497 65T345 24Q263 24 194 65ZM417 58T477 94T573 193T609 327Q609 398
574 460T478 559T346 596Q275 596 215 559T119 460T83 327Q83 255 118 193T213 95T345 58Q417 58 477 94ZM313 154T274 178T211 243T188 328Q188 376 215 414T286 473T380 494Q417 494 460 481Q462 480 466 479T473 476T476 468Q479 455 479 434L478 409Q478 406
475 402T468 398Q462 398 456 413Q448 435 428 448Q404 464 371 464Q321 464 290 426T258 331Q258 272 289 228T376 184Q442 184 462 225Q465 232 470 236T479 240Q484 240 484 227Q484 220 480 207T469 184Q465 177 462 175T452 167Q423 154 359 154Q313 154 274
178Z" />
<glyph unicode="&#xaa;" glyph-name="ordfeminine" horiz-adv-x="310" d="M82 268T64 288T46 327Q46 348 53 360T83 380L159 408Q172 412 174 416T177 432V455Q177 471 167 481T140 491Q126 491 113 488T97 478Q95 472 95 464T95 453Q95 448 79 443T50 434H49Q46
434 45 437T46 444Q52 459 56 466T71 482Q89 497 117 510T168 524Q192 524 211 508T230 471L227 347Q227 308 248 308Q255 308 259 310T264 314Q270 318 272 318Q276 318 279 313T282 303Q282 299 272 289Q251 268 233 268Q200 268 184 299H180Q163 285 146 277T101
268Q82 268 64 288ZM140 308T149 313T169 327Q173 330 174 335T176 350L177 379Q177 388 174 390T162 390Q128 380 113 367T97 342Q97 326 107 317T129 308Q140 308 149 313ZM270 196T274 193T279 185L278 182Q267 161 247 161H49Q44 161 40 165T35 173Q35 180
42 188T59 196H265Q270 196 274 193Z" />
<glyph unicode="&#xab;" glyph-name="guillemotleft" horiz-adv-x="595" d="M301 19T283 37Q234 85 180 123T78 182Q71 186 66 195T60 211Q60 217 63 218Q144 267 192 301T289 382Q307 400 318 400Q324 400 324 391Q324 384 319 376Q282 320 248 287T167 217Q161
213 161 210Q161 208 167 203Q209 171 245 134T319 40Q322 36 322 31Q322 26 320 23T313 19Q301 19 283 37ZM512 19T494 37Q445 85 391 123T289 182Q282 186 277 195T271 211Q271 217 274 218Q355 267 403 301T500 382Q518 400 529 400Q535 400 535 391Q535 384
530 376Q493 320 459 287T378 217Q372 213 372 210Q372 208 378 203Q420 171 456 134T530 40Q533 36 533 31Q533 26 531 23T524 19Q512 19 494 37Z" />
<glyph unicode="&#xac;" glyph-name="logicalnot" horiz-adv-x="600" d="M498 43T494 47T490 57V304Q490 322 476 322H64Q59 322 55 326T50 334Q50 348 55 365T74 382H537Q542 382 546 378T550 368V67Q550 54 533 49T502 43Q498 43 494 47Z" />
<glyph unicode="&#xad;" glyph-name="uni00AD" horiz-adv-x="274" d="M29 170T29 176Q29 194 33 211T45 230Q173 248 237 255Q245 255 245 249Q245 227 240 212T224 195L198 191Q95 175 35 170Q29 170 29 176Z" />
<glyph unicode="&#xae;" glyph-name="registered" horiz-adv-x="665" d="M263 24T194 65T84 175T43 327Q43 409 84 478T194 589T346 630Q428 630 497 589T608 479T649 327Q649 245 608 176T497 65T345 24Q263 24 194 65ZM417 58T477 94T573 193T609 327Q609 398
574 458T478 554T346 590Q275 590 215 555T119 459T83 327Q83 255 118 193T213 95T345 58Q417 58 477 94ZM459 173T434 195T388 248T358 304Q352 320 320 320Q314 320 309 317T304 309L305 231Q305 216 313 210T339 199Q358 193 358 183Q358 179 353 176T342 172Q325
172 307 174Q291 176 277 176Q263 176 249 174Q233 172 216 172Q211 172 206 175T200 183Q200 193 219 199Q233 203 238 209T244 231V426Q244 452 242 457T232 465T221 468Q210 471 206 474T202 484Q202 489 206 492T219 496Q227 496 247 494Q261 491 274 491Q299
491 323 494Q355 496 371 496Q411 496 440 475T470 417Q470 388 452 367T408 337Q403 336 403 332Q403 330 408 320Q423 280 456 242T511 204L521 205Q527 205 527 200Q527 188 513 181T483 173Q459 173 434 195ZM361 347T383 366T406 413Q406 437 388 452T342
467Q321 467 313 460T304 437V367Q304 354 311 351T331 347Q361 347 383 366Z" />
<glyph unicode="&#xaf;" glyph-name="overscore" horiz-adv-x="300" d="M39 500T35 503T30 512Q30 524 36 539T54 555H257Q262 555 266 551T270 543Q270 525 262 513T239 500H44Q39 500 35 503Z" />
<glyph unicode="&#xb0;" glyph-name="degree" horiz-adv-x="290" d="M114 402T87 419T42 466T25 526Q25 557 42 584T86 628T145 645Q176 645 203 629T248 586T265 528Q265 497 248 468T204 420T145 402Q114 402 87 419ZM176 444T199 467T222 523Q222 556 200 579T145
602Q113 602 91 579T68 523Q68 491 91 468T145 444Q176 444 199 467Z" />
<glyph unicode="&#xb1;" glyph-name="plusminus" horiz-adv-x="590" d="M278 121T274 125T270 135V346Q270 351 266 351H64Q59 351 55 355T50 363Q50 374 56 387T74 401H263Q267 401 268 402T270 409V580Q270 592 284 601T306 611Q311 611 315 607T320 598V407Q320
403 320 402T322 401T324 401H527Q532 401 536 398T541 390Q541 379 531 365T509 351H324Q320 351 320 347V145Q320 133 307 127T282 121Q278 121 274 125ZM59 38T55 42T50 50Q50 61 56 74T74 88H527Q532 88 536 85T541 77Q541 66 531 52T509 38H64Q59 38 55 42Z"
/>
<glyph unicode="&#xb2;" glyph-name="uni00B2" horiz-adv-x="300" d="M214 437T176 439Q144 441 129 441L71 440Q55 439 32 439Q28 439 24 442T20 449Q20 452 28 459L67 494Q109 532 143 577T178 660Q178 692 163 709T122 726Q97 726 81 717T42 685Q38 679 33
679Q30 679 28 683T26 693Q26 703 41 724T82 761T143 777Q187 777 210 751T234 684Q234 664 223 640T194 594Q169 563 143 536T103 497L102 495Q102 494 106 493T113 492H186Q207 492 222 504T256 542Q259 547 262 550T271 553Q275 553 275 550T275 545Q274 541
264 512T247 450Q245 437 238 437Q214 437 176 439Z" />
<glyph unicode="&#xb3;" glyph-name="uni00B3" horiz-adv-x="284" d="M71 434T51 445T30 475Q30 486 35 493T48 501Q52 501 57 499T64 494Q85 478 97 472T127 465Q152 465 166 485T181 538Q181 559 163 579T118 599Q113 599 99 596T79 592Q75 592 71 595T66 601Q66
609 80 616T109 629T129 636Q150 646 161 659T172 693Q172 711 157 724T123 737Q79 737 52 698Q47 691 42 691Q39 691 36 697T32 706Q32 718 48 735T88 764T137 777Q171 777 197 757T223 706Q223 681 210 667T167 637Q160 634 167 632Q198 622 218 604T238 560Q238
524 218 495T166 450T96 434Q71 434 51 445Z" />
<glyph unicode="&#xb4;" glyph-name="acute" horiz-adv-x="200" d="M22 457T22 466Q22 473 26 484Q35 508 60 555T103 631Q108 639 115 644T130 649Q150 649 164 644T179 628Q179 621 175 615T169 607Q152 582 117 541T61 478Q40 457 30 457Q22 457 22 466Z" />
<glyph unicode="&#xb5;" glyph-name="uni00B5" horiz-adv-x="537" d="M131 -285T121 -274T100 -234Q94 -218 90 -142T86 0L85 396Q85 407 90 410T112 414Q132 414 154 404T176 386Q176 364 160 256Q158 239 152 194T145 132Q145 106 160 80T205 53Q243 53 268
74T323 152Q333 188 339 260T345 400Q345 408 349 411T366 415Q381 415 396 408T422 392T433 377Q433 326 385 162Q385 129 401 102T448 75Q465 75 478 82T505 99T521 109Q525 109 528 107T532 100Q532 64 519 38T484 -1T441 -15Q417 -15 398 10T371 79Q369 92
367 118H365Q359 105 337 72T287 12T237 -15Q191 -15 154 26Q145 35 135 48T124 62Q121 62 119 53T117 28Q117 33 120 -96L121 -131Q122 -169 138 -191T183 -235Q185 -236 191 -240T199 -248T202 -254Q202 -268 186 -276T153 -285Q131 -285 121 -274Z" />
<glyph unicode="&#xb6;" glyph-name="paragraph" horiz-adv-x="595" d="M232 -289T195 -259T158 -179Q158 -147 174 -120T215 -77T268 -61Q300 -61 317 -75T334 -114Q334 -135 322 -149T291 -163Q275 -163 262 -150Q260 -149 253 -142T236 -135Q222 -135 211 -148T200
-186Q200 -215 226 -234T286 -254Q328 -254 357 -220T386 -112V94Q386 119 373 119Q281 119 207 148T89 236T45 383Q45 648 407 648Q445 648 486 646T547 642Q554 641 558 635T562 622Q562 614 558 603T548 592Q544 593 513 600T443 608Q436 608 431 603T425 590V-112Q425
-172 405 -212T352 -270T282 -289Q232 -289 195 -259Z" />
<glyph unicode="&#xb7;" glyph-name="middot" horiz-adv-x="200" d="M78 150T62 166T45 205Q45 228 61 244T100 260Q123 260 139 244T155 205Q155 183 139 167T100 150Q78 150 62 166Z" />
<glyph unicode="&#xb8;" glyph-name="cedilla" horiz-adv-x="200" d="M37 -274T30 -265T23 -233Q23 -214 36 -214Q40 -214 54 -219T89 -225Q108 -225 118 -213T128 -180Q128 -152 112 -138T69 -123Q62 -123 54 -126T43 -129Q37 -129 31 -125T25 -114Q25 -110 30
-103L118 8H149L111 -42Q106 -49 106 -52Q106 -58 117 -63Q143 -74 160 -94T178 -139Q178 -176 156 -207T103 -256T53 -274Q37 -274 30 -265Z" />
<glyph unicode="&#xb9;" glyph-name="uni00B9" horiz-adv-x="259" d="M43 440T39 444T35 455Q35 460 38 465T48 471Q68 473 79 475T98 486T106 514V664Q106 683 91 695T53 710Q47 711 43 715T39 723Q39 728 42 732T49 737Q83 740 108 753T146 780Q150 784 155
784Q160 784 162 780T164 770Q158 728 158 700V514Q158 496 162 489T177 478T212 471Q218 470 221 466T224 455Q224 449 221 445T212 440Q178 440 158 442L130 443L101 442Q81 440 48 440Q43 440 39 444Z" />
<glyph unicode="&#xba;" glyph-name="ordmasculine" horiz-adv-x="309" d="M97 268T61 301T25 388Q25 424 43 455T93 505T160 524Q192 524 220 508T266 464T284 404Q284 348 248 308T148 268Q97 268 61 301ZM191 297T206 323T221 389Q221 430 201 461T149 493Q118
493 103 467T88 402Q88 359 108 328T160 297Q191 297 206 323ZM276 196T280 193T285 185L284 182Q273 161 253 161H39Q34 161 30 165T25 173Q25 180 32 188T49 196H271Q276 196 280 193Z" />
<glyph unicode="&#xbb;" glyph-name="guillemotright" horiz-adv-x="595" d="M294 19T312 37Q361 85 415 123T517 182Q524 186 529 195T535 211Q535 217 532 218Q451 267 403 301T306 382Q288 400 277 400Q271 400 271 391Q271 384 276 376Q313 320 347 287T428
217Q434 213 434 210Q434 208 428 203Q386 171 350 134T276 40Q273 36 273 31Q273 26 275 23T282 19Q294 19 312 37ZM83 19T101 37Q150 85 204 123T306 182Q313 186 318 195T324 211Q324 217 321 218Q240 267 192 301T95 382Q77 400 66 400Q60 400 60 391Q60 384
65 376Q102 320 136 287T217 217Q223 213 223 210Q223 208 217 203Q175 171 139 134T65 40Q62 36 62 31Q62 26 64 23T71 19Q83 19 101 37Z" />
<glyph unicode="&#xbc;" glyph-name="onequarter" horiz-adv-x="657" d="M43 278T39 282T35 293Q35 298 38 303T48 309Q68 311 79 313T98 324T106 352V502Q106 521 91 533T53 548Q47 549 43 553T39 561Q39 566 42 570T49 575Q83 578 108 591T146 618Q150 622 155
622Q160 622 162 618T164 608Q158 566 158 538V352Q158 334 162 327T177 316T212 309Q218 308 221 304T224 293Q224 287 221 283T212 278Q178 278 158 280L130 281L101 280Q81 278 48 278Q43 278 39 282ZM562 658T571 661T595 665Q600 665 604 661T609 652Q609
649 608 648L170 -47Q164 -56 156 -59T134 -62Q128 -62 123 -58T117 -50Q117 -48 118 -47L556 648Q562 658 571 661ZM527 -8T527 0V92Q527 95 524 96T518 97Q494 97 446 95Q402 93 372 93Q370 93 368 95T365 100Q365 101 365 101T366 101Q419 170 474 236Q475 238
497 265Q525 300 555 330Q568 343 575 343Q579 343 579 334V140Q579 132 586 132H607Q626 132 641 133Q647 133 647 126Q647 118 642 109T633 99H593Q585 99 582 98T579 93V19Q579 9 561 1T536 -8Q527 -8 527 0ZM519 133Q522 133 524 134T527 138V256Q527 258 525
258T521 257Q481 212 423 138Q421 133 423 133H519Z" />
<glyph unicode="&#xbd;" glyph-name="onehalf" horiz-adv-x="717" d="M43 278T39 282T35 293Q35 298 38 303T48 309Q68 311 79 313T98 324T106 352V502Q106 521 91 533T53 548Q47 549 43 553T39 561Q39 566 42 570T49 575Q83 578 108 591T146 618Q150 622 155
622Q160 622 162 618T164 608Q158 566 158 538V352Q158 334 162 327T177 316T212 309Q218 308 221 304T224 293Q224 287 221 283T212 278Q178 278 158 280L130 281L101 280Q81 278 48 278Q43 278 39 282ZM562 658T571 661T595 665Q600 665 604 661T609 652Q609
649 608 648L170 -47Q164 -56 156 -59T134 -62Q128 -62 123 -58T117 -50Q117 -48 118 -47L556 648Q562 658 571 661ZM631 -17T593 -15Q561 -13 546 -13L488 -14Q472 -15 449 -15Q445 -15 441 -12T437 -5Q437 -2 445 5L484 40Q526 78 560 123T595 206Q595 238 580
255T539 272Q514 272 498 263T459 231Q455 225 450 225Q447 225 445 229T443 239Q443 249 458 270T499 307T560 323Q604 323 627 297T651 230Q651 210 640 186T611 140Q586 109 560 82T520 43L519 41Q519 40 523 39T530 38H603Q624 38 639 50T673 88Q676 93 679
96T688 99Q692 99 692 96T692 91Q691 87 681 58T664 -4Q662 -17 655 -17Q631 -17 593 -15Z" />
<glyph unicode="&#xbe;" glyph-name="threequarters" horiz-adv-x="634" d="M71 274T51 285T30 315Q30 326 35 333T48 341Q52 341 57 339T64 334Q85 318 97 312T127 305Q152 305 166 325T181 378Q181 399 163 419T118 439Q113 439 99 436T79 432Q75 432 71 435T66
441Q66 449 80 456T109 469T129 476Q150 486 161 499T172 533Q172 551 157 564T123 577Q79 577 52 538Q47 531 42 531Q39 531 36 537T32 546Q32 558 48 575T88 604T137 617Q171 617 197 597T223 546Q223 521 210 507T167 477Q160 474 167 472Q198 462 218 444T238
400Q238 364 218 335T166 290T96 274Q71 274 51 285ZM539 658T548 661T572 665Q577 665 581 661T586 652Q586 649 585 648L147 -47Q141 -56 133 -59T111 -62Q105 -62 100 -58T94 -50Q94 -48 95 -47L533 648Q539 658 548 661ZM504 -8T504 0V92Q504 95 501 96T495
97Q471 97 423 95Q379 93 349 93Q347 93 345 95T342 100Q342 101 342 101T343 101Q396 170 451 236Q452 238 474 265Q502 300 532 330Q545 343 552 343Q556 343 556 334V140Q556 132 563 132H584Q603 132 618 133Q624 133 624 126Q624 118 619 109T610 99H570Q562
99 559 98T556 93V19Q556 9 538 1T513 -8Q504 -8 504 0ZM496 133Q499 133 501 134T504 138V256Q504 258 502 258T498 257Q458 212 400 138Q398 133 400 133H496Z" />
<glyph unicode="&#xbf;" glyph-name="questiondown" horiz-adv-x="376" d="M245 299T252 291T262 270Q264 264 268 250T275 220T278 183Q278 159 254 140T177 93Q153 81 135 62T116 22Q116 -29 142 -60T217 -93Q226 -93 240 -91Q254 -89 264 -89Q280 -89 293 -107T306
-145Q306 -159 293 -170T266 -181Q240 -181 211 -168T158 -131Q117 -90 91 -34T65 62Q65 123 107 146Q156 173 193 197Q212 209 218 228T225 276Q225 284 229 291T240 299Q245 299 252 291ZM251 494T268 477T286 434Q286 409 269 392T226 374Q201 374 184 391T166
434Q166 459 183 476T226 494Q251 494 268 477Z" />
<glyph unicode="&#xc0;" glyph-name="Agrave" horiz-adv-x="692" d="M14 -5T6 -2T-2 8Q-2 21 31 31Q60 40 81 56T117 108Q170 230 209 329T304 578Q315 609 318 636Q321 637 332 640T354 651Q362 657 366 669T373 685Q374 686 375 686T378 684Q380 679 381 673T385
662Q459 429 563 128Q582 73 605 54T664 28Q680 25 688 19T697 5Q697 -5 668 -5L614 -3Q558 1 529 1L424 0Q395 0 395 12Q395 18 404 23T428 31Q489 41 489 76Q489 108 450 238Q448 245 443 247T423 249H234Q223 249 217 231Q206 199 191 148T176 87Q176 66 192
51T234 30Q252 25 259 21T267 10Q267 -1 238 -1Q220 -1 208 0L147 1Q130 1 110 0T79 -2Q51 -5 27 -5Q14 -5 6 -2ZM416 282Q422 282 426 283T430 287L428 297L350 541Q344 559 341 559Q339 559 333 542L242 297L240 289Q240 284 244 283T261 282H416ZM389 685T377
694L332 728Q269 776 247 796Q241 801 238 805T234 815Q234 824 256 831T292 838Q310 838 319 825Q361 764 396 706Q401 698 401 691Q401 685 395 685Q389 685 377 694Z" />
<glyph unicode="&#xc1;" glyph-name="Aacute" horiz-adv-x="692" d="M14 -5T6 -2T-2 8Q-2 21 31 31Q60 40 81 56T117 108Q170 230 209 329T304 578Q315 609 318 636Q321 637 332 640T354 651Q362 657 366 669T373 685Q374 686 375 686T378 684Q380 679 381 673T385
662Q459 429 563 128Q582 73 605 54T664 28Q680 25 688 19T697 5Q697 -5 668 -5L614 -3Q558 1 529 1L424 0Q395 0 395 12Q395 18 404 23T428 31Q489 41 489 76Q489 108 450 238Q448 245 443 247T423 249H234Q223 249 217 231Q206 199 191 148T176 87Q176 66 192
51T234 30Q252 25 259 21T267 10Q267 -1 238 -1Q220 -1 208 0L147 1Q130 1 110 0T79 -2Q51 -5 27 -5Q14 -5 6 -2ZM416 282Q422 282 426 283T430 287L428 297L350 541Q344 559 341 559Q339 559 333 542L242 297L240 289Q240 284 244 283T261 282H416ZM324 685T324
691Q324 698 329 706Q364 764 406 825Q415 838 433 838Q447 838 469 831T491 815Q491 810 488 806T478 796Q456 776 393 728L348 694Q336 685 330 685Q324 685 324 691Z" />
<glyph unicode="&#xc2;" glyph-name="Acircumflex" horiz-adv-x="692" d="M14 -5T6 -2T-2 8Q-2 21 31 31Q60 40 81 56T117 108Q170 230 209 329T304 578Q315 609 318 636Q321 637 332 640T354 651Q362 657 366 669T373 685Q374 686 375 686T378 684Q380 679 381
673T385 662Q459 429 563 128Q582 73 605 54T664 28Q680 25 688 19T697 5Q697 -5 668 -5L614 -3Q558 1 529 1L424 0Q395 0 395 12Q395 18 404 23T428 31Q489 41 489 76Q489 108 450 238Q448 245 443 247T423 249H234Q223 249 217 231Q206 199 191 148T176 87Q176
66 192 51T234 30Q252 25 259 21T267 10Q267 -1 238 -1Q220 -1 208 0L147 1Q130 1 110 0T79 -2Q51 -5 27 -5Q14 -5 6 -2ZM416 282Q422 282 426 283T430 287L428 297L350 541Q344 559 341 559Q339 559 333 542L242 297L240 289Q240 284 244 283T261 282H416ZM225
696T221 699T217 706Q217 712 224 718L322 801Q338 815 345 819T363 823Q373 823 380 819T404 801L502 718Q508 713 508 706Q508 701 505 698T494 695Q485 695 441 716T373 751Q368 755 363 755Q358 755 353 751Q330 738 286 717T232 696Q225 696 221 699Z" />
<glyph unicode="&#xc3;" glyph-name="Atilde" horiz-adv-x="692" d="M14 -5T6 -2T-2 8Q-2 21 31 31Q60 40 81 56T117 108Q170 230 209 329T304 578Q315 609 318 636Q321 637 332 640T354 651Q362 657 366 669T373 685Q374 686 375 686T378 684Q380 679 381 673T385
662Q459 429 563 128Q582 73 605 54T664 28Q680 25 688 19T697 5Q697 -5 668 -5L614 -3Q558 1 529 1L424 0Q395 0 395 12Q395 18 404 23T428 31Q489 41 489 76Q489 108 450 238Q448 245 443 247T423 249H234Q223 249 217 231Q206 199 191 148T176 87Q176 66 192
51T234 30Q252 25 259 21T267 10Q267 -1 238 -1Q220 -1 208 0L147 1Q130 1 110 0T79 -2Q51 -5 27 -5Q14 -5 6 -2ZM416 282Q422 282 426 283T430 287L428 297L350 541Q344 559 341 559Q339 559 333 542L242 297L240 289Q240 284 244 283T261 282H416ZM246 692T241
697T235 708Q235 713 251 734T286 774T317 792Q357 792 385 789Q429 785 449 785Q469 785 488 804Q493 809 499 816T508 824Q516 824 521 819T527 807Q527 803 513 789Q501 777 486 758T466 733Q461 726 452 723T437 719Q423 719 390 722Q315 727 306 727Q298 727
289 724T273 715Q267 710 260 701T251 692Q246 692 241 697Z" />
<glyph unicode="&#xc4;" glyph-name="Adieresis" horiz-adv-x="692" d="M14 -5T6 -2T-2 8Q-2 21 31 31Q60 40 81 56T117 108Q170 230 209 329T304 578Q315 609 318 636Q321 637 332 640T354 651Q362 657 366 669T373 685Q374 686 375 686T378 684Q380 679 381
673T385 662Q459 429 563 128Q582 73 605 54T664 28Q680 25 688 19T697 5Q697 -5 668 -5L614 -3Q558 1 529 1L424 0Q395 0 395 12Q395 18 404 23T428 31Q489 41 489 76Q489 108 450 238Q448 245 443 247T423 249H234Q223 249 217 231Q206 199 191 148T176 87Q176
66 192 51T234 30Q252 25 259 21T267 10Q267 -1 238 -1Q220 -1 208 0L147 1Q130 1 110 0T79 -2Q51 -5 27 -5Q14 -5 6 -2ZM416 282Q422 282 426 283T430 287L428 297L350 541Q344 559 341 559Q339 559 333 542L242 297L240 289Q240 284 244 283T261 282H416ZM245
695T231 709T216 745Q216 766 230 780T266 795Q287 795 301 781T316 745Q316 724 302 710T266 695Q245 695 231 709ZM440 695T426 709T411 745Q411 766 425 780T461 795Q482 795 496 781T511 745Q511 724 497 710T461 695Q440 695 426 709Z" />
<glyph unicode="&#xc5;" glyph-name="Aring" horiz-adv-x="692" d="M14 -5T6 -2T-2 8Q-2 21 31 31Q60 40 81 56T117 108Q170 230 209 329T304 578Q315 609 318 636Q321 637 332 640T354 651Q362 657 366 669T373 685Q374 686 375 686T378 684Q380 679 381 673T385
662Q459 429 563 128Q582 73 605 54T664 28Q680 25 688 19T697 5Q697 -5 668 -5L614 -3Q558 1 529 1L424 0Q395 0 395 12Q395 18 404 23T428 31Q489 41 489 76Q489 108 450 238Q448 245 443 247T423 249H234Q223 249 217 231Q206 199 191 148T176 87Q176 66 192
51T234 30Q252 25 259 21T267 10Q267 -1 238 -1Q220 -1 208 0L147 1Q130 1 110 0T79 -2Q51 -5 27 -5Q14 -5 6 -2ZM416 282Q422 282 426 283T430 287L428 297L350 541Q344 559 341 559Q339 559 333 542L242 297L240 289Q240 284 244 283T261 282H416ZM394 844T419
826T444 777Q444 743 417 722T353 700Q319 700 295 719T270 769Q270 802 297 823T361 844Q394 844 419 826ZM312 751T326 737T362 722Q380 722 391 737T402 772Q402 792 388 806T354 821Q335 821 324 807T312 772Q312 751 326 737Z" />
<glyph unicode="&#xc6;" glyph-name="AE" horiz-adv-x="872" d="M-5 -5T-5 6Q-5 13 3 18T28 28Q53 35 82 62T132 126L405 594Q406 596 406 599Q406 604 401 607T388 611L300 626Q290 630 290 639Q290 644 293 647T300 651L367 650Q433 648 475 648Q491 648 683
651L784 653Q801 653 802 644Q813 586 814 541Q814 537 810 535T800 532Q795 532 793 534T789 542Q777 578 766 591Q742 618 699 618H568Q557 618 545 611T533 592V349Q533 340 538 334T550 327Q598 327 646 329Q672 330 690 347Q697 353 708 371Q717 388 725 388Q729
388 734 383T738 372Q735 338 735 313Q735 284 738 240Q738 223 729 223Q720 223 714 230T706 246Q699 267 686 278T659 290Q617 292 556 292Q546 292 540 286T533 269V111Q533 80 549 58T598 35H702Q710 35 740 41T778 53Q797 68 820 116Q822 121 825 123T832
126Q838 126 842 123T847 115Q847 90 843 68T830 12Q828 4 826 0T816 -5Q734 -5 654 -2Q629 -1 580 0T492 1Q464 1 440 -2Q389 -5 377 -5Q348 -5 348 6Q348 13 356 17T381 24Q419 31 436 47T454 96V267Q454 276 450 280T432 285H291Q281 285 274 279T261 262Q218
188 179 112Q170 96 170 82Q170 46 235 30Q253 25 260 21T268 10Q268 -1 239 -1Q221 -1 209 0L150 1Q125 1 107 0T77 -2Q49 -5 24 -5Q-5 -5 -5 6ZM438 328Q450 328 452 330T454 343V580Q454 598 451 598Q447 598 438 581L302 343Q298 336 298 333Q298 328 314 328H438Z"
/>
<glyph unicode="&#xc7;" glyph-name="Ccedilla" horiz-adv-x="710" d="M313 -15T230 27T97 147T46 323Q46 418 99 495T241 618T432 663Q484 663 516 658T610 637Q624 633 630 625T639 603Q647 525 648 488Q649 482 644 478T631 473Q618 473 614 487Q603 530 590
555T552 598Q527 614 492 623T415 632Q339 632 278 592T182 487T147 347Q147 264 182 188T279 64T422 16Q491 16 538 47T621 141Q624 147 630 150T641 154Q647 154 651 150T655 138Q655 126 646 95T628 41Q620 27 616 23T596 14Q561 0 510 -7T407 -15Q313 -15 230
27ZM313 -275T302 -267T290 -243Q290 -227 294 -218T306 -209Q308 -209 321 -215T369 -222Q390 -222 400 -211T411 -183Q411 -156 398 -143T364 -129Q358 -129 351 -130T338 -132Q326 -132 319 -126T312 -115Q312 -108 318 -100L398 8H429L392 -48Q388 -53 388
-58Q388 -65 398 -70Q423 -80 443 -103T464 -159Q464 -191 442 -217T390 -259T335 -275Q313 -275 302 -267Z" />
<glyph unicode="&#xc8;" glyph-name="Egrave" horiz-adv-x="564" d="M37 -5T37 6Q37 13 45 17T70 24Q109 31 126 47T144 99V549Q144 584 130 599T77 622Q44 628 44 642Q44 653 73 653Q111 653 165 651L250 650L387 651L472 653Q489 653 490 644Q492 636 498 600T505
541Q505 526 491 526Q486 526 484 528T480 536Q478 541 472 562T458 591Q434 618 391 618H260Q250 618 237 609T224 586V374Q224 365 229 359T242 352H341Q369 352 380 362T399 401Q405 423 417 423Q421 423 425 419T430 407L429 381L427 337L428 284L429 260Q429
243 420 243Q405 243 397 275Q391 299 381 309T351 320H258Q239 320 232 315T224 294V102Q224 65 239 50T290 35H364Q397 35 418 39T455 52Q470 62 482 79T512 129Q519 142 526 142Q539 142 539 128Q539 115 528 74T508 12Q507 10 505 5T501 -2T494 -5Q474 -5 318
-2Q249 1 181 1Q153 1 129 -2Q78 -5 66 -5Q37 -5 37 6ZM324 685T312 694L267 728Q204 776 182 796Q176 801 173 805T169 815Q169 824 191 831T227 838Q245 838 254 825Q296 764 331 706Q336 698 336 691Q336 685 330 685Q324 685 312 694Z" />
<glyph unicode="&#xc9;" glyph-name="Eacute" horiz-adv-x="564" d="M37 -5T37 6Q37 13 45 17T70 24Q109 31 126 47T144 99V549Q144 584 130 599T77 622Q44 628 44 642Q44 653 73 653Q111 653 165 651L250 650L387 651L472 653Q489 653 490 644Q492 636 498 600T505
541Q505 526 491 526Q486 526 484 528T480 536Q478 541 472 562T458 591Q434 618 391 618H260Q250 618 237 609T224 586V374Q224 365 229 359T242 352H341Q369 352 380 362T399 401Q405 423 417 423Q421 423 425 419T430 407L429 381L427 337L428 284L429 260Q429
243 420 243Q405 243 397 275Q391 299 381 309T351 320H258Q239 320 232 315T224 294V102Q224 65 239 50T290 35H364Q397 35 418 39T455 52Q470 62 482 79T512 129Q519 142 526 142Q539 142 539 128Q539 115 528 74T508 12Q507 10 505 5T501 -2T494 -5Q474 -5 318
-2Q249 1 181 1Q153 1 129 -2Q78 -5 66 -5Q37 -5 37 6ZM259 685T259 691Q259 698 264 706Q299 764 341 825Q350 838 368 838Q382 838 404 831T426 815Q426 810 423 806T413 796Q391 776 328 728L283 694Q271 685 265 685Q259 685 259 691Z" />
<glyph unicode="&#xca;" glyph-name="Ecircumflex" horiz-adv-x="564" d="M37 -5T37 6Q37 13 45 17T70 24Q109 31 126 47T144 99V549Q144 584 130 599T77 622Q44 628 44 642Q44 653 73 653Q111 653 165 651L250 650L387 651L472 653Q489 653 490 644Q492 636 498
600T505 541Q505 526 491 526Q486 526 484 528T480 536Q478 541 472 562T458 591Q434 618 391 618H260Q250 618 237 609T224 586V374Q224 365 229 359T242 352H341Q369 352 380 362T399 401Q405 423 417 423Q421 423 425 419T430 407L429 381L427 337L428 284L429
260Q429 243 420 243Q405 243 397 275Q391 299 381 309T351 320H258Q239 320 232 315T224 294V102Q224 65 239 50T290 35H364Q397 35 418 39T455 52Q470 62 482 79T512 129Q519 142 526 142Q539 142 539 128Q539 115 528 74T508 12Q507 10 505 5T501 -2T494 -5Q474
-5 318 -2Q249 1 181 1Q153 1 129 -2Q78 -5 66 -5Q37 -5 37 6ZM160 696T156 699T152 706Q152 712 159 718L257 801Q273 815 280 819T298 823Q308 823 315 819T339 801L437 718Q443 713 443 706Q443 701 440 698T429 695Q420 695 376 716T308 751Q303 755 298 755Q293
755 288 751Q265 738 221 717T167 696Q160 696 156 699Z" />
<glyph unicode="&#xcb;" glyph-name="Edieresis" horiz-adv-x="564" d="M37 -5T37 6Q37 13 45 17T70 24Q109 31 126 47T144 99V549Q144 584 130 599T77 622Q44 628 44 642Q44 653 73 653Q111 653 165 651L250 650L387 651L472 653Q489 653 490 644Q492 636 498
600T505 541Q505 526 491 526Q486 526 484 528T480 536Q478 541 472 562T458 591Q434 618 391 618H260Q250 618 237 609T224 586V374Q224 365 229 359T242 352H341Q369 352 380 362T399 401Q405 423 417 423Q421 423 425 419T430 407L429 381L427 337L428 284L429
260Q429 243 420 243Q405 243 397 275Q391 299 381 309T351 320H258Q239 320 232 315T224 294V102Q224 65 239 50T290 35H364Q397 35 418 39T455 52Q470 62 482 79T512 129Q519 142 526 142Q539 142 539 128Q539 115 528 74T508 12Q507 10 505 5T501 -2T494 -5Q474
-5 318 -2Q249 1 181 1Q153 1 129 -2Q78 -5 66 -5Q37 -5 37 6ZM180 695T166 709T151 745Q151 766 165 780T201 795Q222 795 236 781T251 745Q251 724 237 710T201 695Q180 695 166 709ZM375 695T361 709T346 745Q346 766 360 780T396 795Q417 795 431 781T446 745Q446
724 432 710T396 695Q375 695 361 709Z" />
<glyph unicode="&#xcc;" glyph-name="Igrave" horiz-adv-x="340" d="M19 -5T19 6Q19 13 27 17T52 24Q92 31 111 47T130 98V550Q130 585 116 600T63 622Q30 628 30 642Q30 653 59 653Q87 653 123 651L176 650L224 651Q256 653 285 653Q314 653 314 642Q314 628
281 622Q242 615 226 600T210 550V98Q210 64 229 48T289 24Q306 21 314 17T322 6Q322 -5 293 -5Q256 -5 229 -2Q197 0 176 0Q151 0 115 -2Q85 -5 48 -5Q19 -5 19 6ZM196 685T184 694L139 728Q76 776 54 796Q48 801 45 805T41 815Q41 824 63 831T99 838Q117 838
126 825Q168 764 203 706Q208 698 208 691Q208 685 202 685Q196 685 184 694Z" />
<glyph unicode="&#xcd;" glyph-name="Iacute" horiz-adv-x="340" d="M19 -5T19 6Q19 13 27 17T52 24Q92 31 111 47T130 98V550Q130 585 116 600T63 622Q30 628 30 642Q30 653 59 653Q87 653 123 651L176 650L224 651Q256 653 285 653Q314 653 314 642Q314 628
281 622Q242 615 226 600T210 550V98Q210 64 229 48T289 24Q306 21 314 17T322 6Q322 -5 293 -5Q256 -5 229 -2Q197 0 176 0Q151 0 115 -2Q85 -5 48 -5Q19 -5 19 6ZM131 685T131 691Q131 698 136 706Q171 764 213 825Q222 838 240 838Q254 838 276 831T298 815Q298
810 295 806T285 796Q263 776 200 728L155 694Q143 685 137 685Q131 685 131 691Z" />
<glyph unicode="&#xce;" glyph-name="Icircumflex" horiz-adv-x="340" d="M19 -5T19 6Q19 13 27 17T52 24Q92 31 111 47T130 98V550Q130 585 116 600T63 622Q30 628 30 642Q30 653 59 653Q87 653 123 651L176 650L224 651Q256 653 285 653Q314 653 314 642Q314
628 281 622Q242 615 226 600T210 550V98Q210 64 229 48T289 24Q306 21 314 17T322 6Q322 -5 293 -5Q256 -5 229 -2Q197 0 176 0Q151 0 115 -2Q85 -5 48 -5Q19 -5 19 6ZM32 696T28 699T24 706Q24 712 31 718L129 801Q145 815 152 819T170 823Q180 823 187 819T211
801L309 718Q315 713 315 706Q315 701 312 698T301 695Q292 695 248 716T180 751Q175 755 170 755Q165 755 160 751Q137 738 93 717T39 696Q32 696 28 699Z" />
<glyph unicode="&#xcf;" glyph-name="Idieresis" horiz-adv-x="340" d="M19 -5T19 6Q19 13 27 17T52 24Q92 31 111 47T130 98V550Q130 585 116 600T63 622Q30 628 30 642Q30 653 59 653Q87 653 123 651L176 650L224 651Q256 653 285 653Q314 653 314 642Q314 628
281 622Q242 615 226 600T210 550V98Q210 64 229 48T289 24Q306 21 314 17T322 6Q322 -5 293 -5Q256 -5 229 -2Q197 0 176 0Q151 0 115 -2Q85 -5 48 -5Q19 -5 19 6ZM52 695T38 709T23 745Q23 766 37 780T73 795Q94 795 108 781T123 745Q123 724 109 710T73 695Q52
695 38 709ZM247 695T233 709T218 745Q218 766 232 780T268 795Q289 795 303 781T318 745Q318 724 304 710T268 695Q247 695 233 709Z" />
<glyph unicode="&#xd0;" glyph-name="Eth" horiz-adv-x="754" d="M470 659T555 618T679 505T719 342Q719 248 672 168T545 40T371 -7L325 -5Q215 0 163 0Q146 0 118 -2Q96 -5 58 -5Q29 -5 29 8Q29 16 35 18T62 24Q100 31 114 47T129 99V317H60Q54 317 50 323T46
335Q46 342 53 347T70 353H129V549Q129 584 115 599T62 622Q43 625 36 628T29 640Q29 653 58 653L115 652Q130 651 169 651Q210 651 272 656Q293 657 310 658T340 659Q470 659 555 618ZM436 28T496 66T590 171T624 325Q624 417 584 486T480 591T345 628Q292 628
266 625T224 609T209 567V353H377Q382 353 386 350T391 342L390 339Q378 317 359 317H209V121Q209 66 249 47T359 28Q436 28 496 66Z" />
<glyph unicode="&#xd1;" glyph-name="Ntilde" horiz-adv-x="792" d="M656 -17T630 0T582 46Q574 58 466 186T308 373Q228 467 214 484Q201 500 193 500Q188 500 186 494T184 479Q179 232 179 104Q179 36 243 24Q260 21 268 17T276 6Q276 -5 247 -5Q210 -5 190
-2Q170 0 153 0Q138 0 118 -2Q79 -5 62 -5Q33 -5 33 6Q33 12 40 16T66 25Q117 39 124 107Q131 172 136 282T142 507Q142 556 118 580T43 620Q34 623 23 629T12 644Q12 652 19 655T35 658L105 655Q153 653 189 653Q197 653 201 650T213 636Q225 619 382 428T606
156Q623 136 631 136Q640 136 641 157Q643 233 643 564Q642 582 623 599T585 619Q540 627 540 639Q540 644 553 647T581 650H638L688 651Q720 653 753 653Q782 653 782 642Q782 628 749 622Q712 615 700 604T686 568Q684 532 684 105Q684 65 688 29L689 8Q689 -17
668 -17Q656 -17 630 0ZM289 692T284 697T278 708Q278 713 294 734T329 774T360 792Q400 792 428 789Q472 785 492 785Q512 785 531 804Q536 809 542 816T551 824Q559 824 564 819T570 807Q570 803 556 789Q544 777 529 758T509 733Q504 726 495 723T480 719Q466
719 433 722Q358 727 349 727Q341 727 332 724T316 715Q310 710 303 701T294 692Q289 692 284 697Z" />
<glyph unicode="&#xd2;" glyph-name="Ograve" horiz-adv-x="763" d="M289 -14T213 27T91 144T45 315Q45 407 85 487T202 615T386 664Q474 664 550 623T672 506T718 335Q718 243 678 163T561 35T377 -14Q289 -14 213 27ZM504 26T563 95T622 286Q622 381 593 457T508
577T370 622Q259 622 200 554T141 365Q141 270 169 193T254 71T392 26Q504 26 563 95ZM417 685T405 694L360 728Q297 776 275 796Q269 801 266 805T262 815Q262 824 284 831T320 838Q338 838 347 825Q389 764 424 706Q429 698 429 691Q429 685 423 685Q417 685
405 694Z" />
<glyph unicode="&#xd3;" glyph-name="Oacute" horiz-adv-x="763" d="M289 -14T213 27T91 144T45 315Q45 407 85 487T202 615T386 664Q474 664 550 623T672 506T718 335Q718 243 678 163T561 35T377 -14Q289 -14 213 27ZM504 26T563 95T622 286Q622 381 593 457T508
577T370 622Q259 622 200 554T141 365Q141 270 169 193T254 71T392 26Q504 26 563 95ZM352 685T352 691Q352 698 357 706Q392 764 434 825Q443 838 461 838Q475 838 497 831T519 815Q519 810 516 806T506 796Q484 776 421 728L376 694Q364 685 358 685Q352 685
352 691Z" />
<glyph unicode="&#xd4;" glyph-name="Ocircumflex" horiz-adv-x="763" d="M289 -14T213 27T91 144T45 315Q45 407 85 487T202 615T386 664Q474 664 550 623T672 506T718 335Q718 243 678 163T561 35T377 -14Q289 -14 213 27ZM504 26T563 95T622 286Q622 381 593
457T508 577T370 622Q259 622 200 554T141 365Q141 270 169 193T254 71T392 26Q504 26 563 95ZM253 696T249 699T245 706Q245 712 252 718L350 801Q366 815 373 819T391 823Q401 823 408 819T432 801L530 718Q536 713 536 706Q536 701 533 698T522 695Q513 695
469 716T401 751Q396 755 391 755Q386 755 381 751Q358 738 314 717T260 696Q253 696 249 699Z" />
<glyph unicode="&#xd5;" glyph-name="Otilde" horiz-adv-x="763" d="M289 -14T213 27T91 144T45 315Q45 407 85 487T202 615T386 664Q474 664 550 623T672 506T718 335Q718 243 678 163T561 35T377 -14Q289 -14 213 27ZM504 26T563 95T622 286Q622 381 593 457T508
577T370 622Q259 622 200 554T141 365Q141 270 169 193T254 71T392 26Q504 26 563 95ZM274 692T269 697T263 708Q263 713 279 734T314 774T345 792Q385 792 413 789Q457 785 477 785Q497 785 516 804Q521 809 527 816T536 824Q544 824 549 819T555 807Q555 803
541 789Q529 777 514 758T494 733Q489 726 480 723T465 719Q451 719 418 722Q343 727 334 727Q326 727 317 724T301 715Q295 710 288 701T279 692Q274 692 269 697Z" />
<glyph unicode="&#xd6;" glyph-name="Odieresis" horiz-adv-x="763" d="M289 -14T213 27T91 144T45 315Q45 407 85 487T202 615T386 664Q474 664 550 623T672 506T718 335Q718 243 678 163T561 35T377 -14Q289 -14 213 27ZM504 26T563 95T622 286Q622 381 593
457T508 577T370 622Q259 622 200 554T141 365Q141 270 169 193T254 71T392 26Q504 26 563 95ZM273 695T259 709T244 745Q244 766 258 780T294 795Q315 795 329 781T344 745Q344 724 330 710T294 695Q273 695 259 709ZM468 695T454 709T439 745Q439 766 453 780T489
795Q510 795 524 781T539 745Q539 724 525 710T489 695Q468 695 454 709Z" />
<glyph unicode="&#xd7;" glyph-name="multiply" horiz-adv-x="600" d="M450 60T446 64L304 207Q301 211 297 207L154 64Q150 60 144 60Q139 60 136 63Q129 70 122 81T114 102Q114 109 119 114L253 248Q256 251 256 253T252 258L123 386Q118 391 118 400Q118 410
124 422T134 441Q138 445 144 445Q150 445 153 441L296 299Q300 295 301 296T303 298L447 441Q452 446 457 446Q463 446 466 441Q468 437 475 424T483 401Q483 393 476 386L345 255Q343 253 345 250L481 114Q486 109 486 102Q486 89 476 75T456 60Q450 60 446 64Z"
/>
<glyph unicode="&#xd8;" glyph-name="Oslash" horiz-adv-x="773" d="M641 550Q678 506 698 452T718 335Q718 243 678 163T561 35T377 -14Q315 -14 258 7T156 66L79 -11Q76 -14 70 -14Q60 -14 51 -8T42 6Q42 16 52 26L125 98Q87 141 66 196T45 315Q45 407 85 487T202
615T386 664Q449 664 508 642T612 579L692 658Q696 662 703 662Q713 662 716 654Q719 642 719 639Q719 628 712 621L641 550ZM141 245T185 157L557 525Q489 622 370 622Q259 622 200 554T141 365Q141 245 185 157ZM622 405T579 488L209 119Q276 26 392 26Q504 26
563 95T622 286Q622 405 579 488Z" />
<glyph unicode="&#xd9;" glyph-name="Ugrave" horiz-adv-x="738" d="M241 -14T172 54T103 240V547Q103 580 90 597T57 620Q24 629 24 642Q24 653 53 653L96 652Q128 650 149 650L197 651Q209 652 229 652Q258 652 258 641Q258 635 251 631T225 621Q211 617 197
597T183 549V268Q183 152 240 94T393 36Q493 36 542 105T592 296Q592 357 588 511Q587 553 577 583T547 620Q514 629 514 640Q514 651 543 651L618 650Q637 650 665 652L699 653Q728 653 728 642Q728 629 695 622Q648 613 645 547Q641 486 640 423T637 337Q637
308 635 250Q633 174 598 114T504 20T372 -14Q241 -14 172 54ZM416 685T404 694L359 728Q296 776 274 796Q268 801 265 805T261 815Q261 824 283 831T319 838Q337 838 346 825Q388 764 423 706Q428 698 428 691Q428 685 422 685Q416 685 404 694Z" />
<glyph unicode="&#xda;" glyph-name="Uacute" horiz-adv-x="738" d="M241 -14T172 54T103 240V547Q103 580 90 597T57 620Q24 629 24 642Q24 653 53 653L96 652Q128 650 149 650L197 651Q209 652 229 652Q258 652 258 641Q258 635 251 631T225 621Q211 617 197
597T183 549V268Q183 152 240 94T393 36Q493 36 542 105T592 296Q592 357 588 511Q587 553 577 583T547 620Q514 629 514 640Q514 651 543 651L618 650Q637 650 665 652L699 653Q728 653 728 642Q728 629 695 622Q648 613 645 547Q641 486 640 423T637 337Q637
308 635 250Q633 174 598 114T504 20T372 -14Q241 -14 172 54ZM351 685T351 691Q351 698 356 706Q391 764 433 825Q442 838 460 838Q474 838 496 831T518 815Q518 810 515 806T505 796Q483 776 420 728L375 694Q363 685 357 685Q351 685 351 691Z" />
<glyph unicode="&#xdb;" glyph-name="Ucircumflex" horiz-adv-x="738" d="M241 -14T172 54T103 240V547Q103 580 90 597T57 620Q24 629 24 642Q24 653 53 653L96 652Q128 650 149 650L197 651Q209 652 229 652Q258 652 258 641Q258 635 251 631T225 621Q211 617
197 597T183 549V268Q183 152 240 94T393 36Q493 36 542 105T592 296Q592 357 588 511Q587 553 577 583T547 620Q514 629 514 640Q514 651 543 651L618 650Q637 650 665 652L699 653Q728 653 728 642Q728 629 695 622Q648 613 645 547Q641 486 640 423T637 337Q637
308 635 250Q633 174 598 114T504 20T372 -14Q241 -14 172 54ZM252 696T248 699T244 706Q244 712 251 718L349 801Q365 815 372 819T390 823Q400 823 407 819T431 801L529 718Q535 713 535 706Q535 701 532 698T521 695Q512 695 468 716T400 751Q395 755 390 755Q385
755 380 751Q357 738 313 717T259 696Q252 696 248 699Z" />
<glyph unicode="&#xdc;" glyph-name="Udieresis" horiz-adv-x="738" d="M241 -14T172 54T103 240V547Q103 580 90 597T57 620Q24 629 24 642Q24 653 53 653L96 652Q128 650 149 650L197 651Q209 652 229 652Q258 652 258 641Q258 635 251 631T225 621Q211 617
197 597T183 549V268Q183 152 240 94T393 36Q493 36 542 105T592 296Q592 357 588 511Q587 553 577 583T547 620Q514 629 514 640Q514 651 543 651L618 650Q637 650 665 652L699 653Q728 653 728 642Q728 629 695 622Q648 613 645 547Q641 486 640 423T637 337Q637
308 635 250Q633 174 598 114T504 20T372 -14Q241 -14 172 54ZM272 695T258 709T243 745Q243 766 257 780T293 795Q314 795 328 781T343 745Q343 724 329 710T293 695Q272 695 258 709ZM467 695T453 709T438 745Q438 766 452 780T488 795Q509 795 523 781T538 745Q538
724 524 710T488 695Q467 695 453 709Z" />
<glyph unicode="&#xdd;" glyph-name="Yacute" horiz-adv-x="578" d="M153 -5T153 6Q153 13 161 17T186 24Q264 38 264 108V256Q264 273 256 294T239 330L122 522Q67 610 33 620Q16 626 8 631T0 642Q0 653 29 653L75 652Q119 650 146 650L194 651Q206 652 226 652Q255
652 255 641Q255 629 222 621Q205 617 198 612T190 596Q190 583 203 560L295 390Q315 352 323 352Q329 352 335 359T356 390Q386 438 422 502Q426 510 440 534Q458 564 458 585Q458 614 417 620Q406 622 395 628T384 640Q384 651 413 651L488 650Q516 650 554 652L592
653Q621 653 621 642Q621 636 608 630T568 617Q544 610 528 592T480 526Q427 444 369 350Q351 320 348 306T344 260V108Q344 74 364 53T423 24Q440 21 448 17T456 6Q456 -5 427 -5Q390 -5 363 -2Q331 0 310 0Q285 0 249 -2Q219 -5 182 -5Q153 -5 153 6ZM281 685T281
691Q281 698 286 706Q321 764 363 825Q372 838 390 838Q404 838 426 831T448 815Q448 810 445 806T435 796Q413 776 350 728L305 694Q293 685 287 685Q281 685 281 691Z" />
<glyph unicode="&#xde;" glyph-name="Thorn" horiz-adv-x="559" d="M22 -5T22 6Q22 13 30 17T55 24Q95 31 114 48T134 99V549Q134 582 123 599T77 622Q44 628 44 642Q44 653 73 653Q103 653 133 651L177 650L231 651Q267 653 296 653Q325 653 325 642Q325 628
292 622Q252 615 233 599T214 549V532Q214 524 215 518T220 512Q227 513 234 515T243 517Q270 524 315 524Q373 524 419 502T492 438T519 337Q519 233 444 181T256 129Q248 129 238 130T222 132Q214 132 214 123V96Q214 65 234 48T293 24Q310 21 318 17T326 6Q326
-5 297 -5Q260 -5 233 -2Q201 0 180 0Q156 0 118 -2Q90 -5 51 -5Q22 -5 22 6ZM344 158T388 206T433 335Q433 404 399 450T299 496Q262 496 245 490T221 469T214 420V216Q214 187 228 173T265 158Q344 158 388 206Z" />
<glyph unicode="&#xdf;" glyph-name="germandbls" horiz-adv-x="504" d="M283 -15T262 -3T241 33Q241 81 265 81Q276 81 296 66Q314 51 328 46T365 41Q387 41 404 55T422 98Q422 123 406 144T334 217Q289 261 273 277T251 306T245 336Q245 357 259 374T305 418Q330
438 350 458Q368 477 379 503T391 555Q391 604 362 634T272 665Q219 665 189 620T159 475V69Q159 37 201 24Q213 20 218 17T224 6Q224 -3 204 -3Q176 -3 161 0Q143 2 125 2Q108 2 88 0Q73 -3 47 -3H44Q24 -3 24 6Q24 13 29 16T47 24Q89 37 89 69V350Q58 350 37
352Q34 353 30 358T26 369Q26 374 30 376Q55 383 70 391T89 402Q89 510 124 578T211 676T318 706Q357 706 388 688T436 639T454 572Q454 538 438 511T375 443Q344 416 334 403T324 364Q324 347 333 335T374 292Q382 285 401 266Q446 222 460 197T474 140Q474 100
451 65T390 7T314 -15Q283 -15 262 -3Z" />
<glyph unicode="&#xe0;" glyph-name="agrave" horiz-adv-x="399" d="M100 -14T81 -1T50 33T37 72Q37 103 53 121T108 155L210 197Q229 205 233 211T238 237L240 301Q241 328 225 346T181 365Q166 365 151 360T126 347Q116 340 116 318L117 300Q117 292 92 279T51
265Q46 265 43 267T40 274Q40 290 50 308T80 343Q114 374 156 394T229 414Q265 414 288 389T311 325L306 85Q305 64 315 51T342 38Q367 38 379 49Q384 54 387 54Q392 54 395 51T398 43Q398 39 395 33T387 21Q371 5 353 -4T318 -14Q272 -14 245 38H242Q209 11 179
-1T117 -14Q100 -14 81 -1ZM199 34T223 58Q229 64 232 73T236 99L238 148V154Q238 162 236 165T229 169Q223 169 209 164Q159 146 137 126T115 87Q115 62 129 48T164 34Q199 34 223 58ZM214 457T193 478Q172 499 137 540T85 607Q83 609 79 615T75 628Q75 638 89
643T124 649Q131 649 138 644T151 631Q168 602 193 555T228 484Q232 473 232 466Q232 457 224 457Q214 457 193 478Z" />
<glyph unicode="&#xe1;" glyph-name="aacute" horiz-adv-x="399" d="M100 -14T81 -1T50 33T37 72Q37 103 53 121T108 155L210 197Q229 205 233 211T238 237L240 301Q241 328 225 346T181 365Q166 365 151 360T126 347Q116 340 116 318L117 300Q117 292 92 279T51
265Q46 265 43 267T40 274Q40 290 50 308T80 343Q114 374 156 394T229 414Q265 414 288 389T311 325L306 85Q305 64 315 51T342 38Q367 38 379 49Q384 54 387 54Q392 54 395 51T398 43Q398 39 395 33T387 21Q371 5 353 -4T318 -14Q272 -14 245 38H242Q209 11 179
-1T117 -14Q100 -14 81 -1ZM199 34T223 58Q229 64 232 73T236 99L238 148V154Q238 162 236 165T229 169Q223 169 209 164Q159 146 137 126T115 87Q115 62 129 48T164 34Q199 34 223 58ZM169 457T169 466Q169 473 173 484Q182 508 207 555T250 631Q255 639 262 644T277
649Q297 649 311 644T326 628Q326 621 322 615T316 607Q299 582 264 541T208 478Q187 457 177 457Q169 457 169 466Z" />
<glyph unicode="&#xe2;" glyph-name="acircumflex" horiz-adv-x="399" d="M100 -14T81 -1T50 33T37 72Q37 103 53 121T108 155L210 197Q229 205 233 211T238 237L240 301Q241 328 225 346T181 365Q166 365 151 360T126 347Q116 340 116 318L117 300Q117 292 92
279T51 265Q46 265 43 267T40 274Q40 290 50 308T80 343Q114 374 156 394T229 414Q265 414 288 389T311 325L306 85Q305 64 315 51T342 38Q367 38 379 49Q384 54 387 54Q392 54 395 51T398 43Q398 39 395 33T387 21Q371 5 353 -4T318 -14Q272 -14 245 38H242Q209
11 179 -1T117 -14Q100 -14 81 -1ZM199 34T223 58Q229 64 232 73T236 99L238 148V154Q238 162 236 165T229 169Q223 169 209 164Q159 146 137 126T115 87Q115 62 129 48T164 34Q199 34 223 58ZM210 648T221 630Q240 600 274 539T309 468Q309 460 308 458T300 455Q291
455 271 477Q247 504 205 562Q203 565 202 565T198 562Q156 504 132 477Q112 455 102 455Q96 455 95 457T93 468Q93 477 127 538T181 630Q192 648 201 648Q210 648 221 630Z" />
<glyph unicode="&#xe3;" glyph-name="atilde" horiz-adv-x="399" d="M100 -14T81 -1T50 33T37 72Q37 103 53 121T108 155L210 197Q229 205 233 211T238 237L240 301Q241 328 225 346T181 365Q166 365 151 360T126 347Q116 340 116 318L117 300Q117 292 92 279T51
265Q46 265 43 267T40 274Q40 290 50 308T80 343Q114 374 156 394T229 414Q265 414 288 389T311 325L306 85Q305 64 315 51T342 38Q367 38 379 49Q384 54 387 54Q392 54 395 51T398 43Q398 39 395 33T387 21Q371 5 353 -4T318 -14Q272 -14 245 38H242Q209 11 179
-1T117 -14Q100 -14 81 -1ZM199 34T223 58Q229 64 232 73T236 99L238 148V154Q238 162 236 165T229 169Q223 169 209 164Q159 146 137 126T115 87Q115 62 129 48T164 34Q199 34 223 58ZM70 458T70 473Q70 478 89 502T131 547T164 567Q179 567 192 565T215 562Q259
558 271 558Q291 558 310 577Q318 585 327 595T338 605Q346 605 351 600T357 588Q357 584 335 562Q323 551 308 532T288 506Q283 499 274 496T259 492Q247 492 223 495Q163 500 148 500Q133 500 109 478Q104 474 97 466T86 458Q70 458 70 473Z" />
<glyph unicode="&#xe4;" glyph-name="adieresis" horiz-adv-x="399" d="M100 -14T81 -1T50 33T37 72Q37 103 53 121T108 155L210 197Q229 205 233 211T238 237L240 301Q241 328 225 346T181 365Q166 365 151 360T126 347Q116 340 116 318L117 300Q117 292 92 279T51
265Q46 265 43 267T40 274Q40 290 50 308T80 343Q114 374 156 394T229 414Q265 414 288 389T311 325L306 85Q305 64 315 51T342 38Q367 38 379 49Q384 54 387 54Q392 54 395 51T398 43Q398 39 395 33T387 21Q371 5 353 -4T318 -14Q272 -14 245 38H242Q209 11 179
-1T117 -14Q100 -14 81 -1ZM199 34T223 58Q229 64 232 73T236 99L238 148V154Q238 162 236 165T229 169Q223 169 209 164Q159 146 137 126T115 87Q115 62 129 48T164 34Q199 34 223 58ZM94 508T79 523T63 558Q63 577 78 592T113 608Q132 608 147 593T163 558Q163
539 148 524T113 508Q94 508 79 523ZM271 508T256 523T240 558Q240 577 255 592T290 608Q309 608 324 593T340 558Q340 539 325 524T290 508Q271 508 256 523Z" />
<glyph unicode="&#xe5;" glyph-name="aring" horiz-adv-x="399" d="M100 -14T81 -1T50 33T37 72Q37 103 53 121T108 155L210 197Q229 205 233 211T238 237L240 301Q241 328 225 346T181 365Q166 365 151 360T126 347Q116 340 116 318L117 300Q117 292 92 279T51
265Q46 265 43 267T40 274Q40 290 50 308T80 343Q114 374 156 394T229 414Q265 414 288 389T311 325L306 85Q305 64 315 51T342 38Q367 38 379 49Q384 54 387 54Q392 54 395 51T398 43Q398 39 395 33T387 21Q371 5 353 -4T318 -14Q272 -14 245 38H242Q209 11 179
-1T117 -14Q100 -14 81 -1ZM199 34T223 58Q229 64 232 73T236 99L238 148V154Q238 162 236 165T229 169Q223 169 209 164Q159 146 137 126T115 87Q115 62 129 48T164 34Q199 34 223 58ZM165 480T141 505T117 563Q117 596 144 621T204 647Q237 647 261 625T285 569Q285
531 259 506T198 480Q165 480 141 505ZM244 506T244 562Q244 584 230 602T195 620Q158 620 158 568Q158 543 171 525T205 506Q244 506 244 562Z" />
<glyph unicode="&#xe6;" glyph-name="ae" horiz-adv-x="557" d="M92 -14T65 11T37 65Q37 96 54 117T110 155L214 202Q234 211 238 216T243 233V299Q243 326 227 345T183 365Q166 365 147 354T122 332Q118 325 118 313L119 299Q119 290 91 277T50 264Q46 264 44
267T42 273Q42 289 52 307T82 342Q111 368 153 391T231 414Q246 414 267 403T294 381Q297 376 299 376L306 380Q324 393 356 403T413 413Q457 413 493 388T530 318Q530 303 525 297T506 284Q499 280 372 225L322 203Q318 201 315 195T311 185V129Q311 84 336 65T399
46Q468 46 510 94Q514 98 519 98Q524 98 528 95T532 87Q532 84 531 83Q496 32 460 9T368 -14Q339 -14 311 -4T259 26Q247 38 246 38Q242 38 238 34Q234 31 219 18T179 -4T123 -14Q92 -14 65 11ZM352 254T374 262T413 277Q422 280 454 292Q461 294 461 306Q461 335
440 356T387 378Q377 378 359 371T327 350T312 321V254Q312 247 317 245T327 244Q352 254 374 262ZM197 32T228 59Q235 65 238 72T242 96V148Q242 162 241 167T234 172Q230 172 219 169Q185 160 152 138T117 87Q117 61 133 47T166 32Q197 32 228 59Z" />
<glyph unicode="&#xe7;" glyph-name="ccedilla" horiz-adv-x="407" d="M163 -15T123 10T59 80T35 180Q35 244 63 297T140 382T246 414Q311 414 360 379Q372 370 372 360Q372 347 357 333T329 319Q324 319 319 322T308 330Q283 349 257 363T214 377Q165 377 135
331T104 212Q104 166 124 128T179 67T256 45Q285 45 306 54T351 88Q356 93 361 93Q366 93 369 89T372 79Q372 68 357 48Q333 17 296 1T213 -15Q163 -15 123 10ZM146 -274T139 -265T132 -233Q132 -214 145 -214Q149 -214 163 -219T198 -225Q217 -225 227 -213T237
-180Q237 -152 221 -138T178 -123Q171 -123 163 -126T152 -129Q146 -129 140 -125T134 -114Q134 -110 139 -103L227 8H258L220 -42Q215 -49 215 -52Q215 -58 226 -63Q252 -74 269 -94T287 -139Q287 -176 265 -207T212 -256T162 -274Q146 -274 139 -265Z" />
<glyph unicode="&#xe8;" glyph-name="egrave" horiz-adv-x="390" d="M159 -15T118 12T53 88T30 203Q30 259 56 308T127 385T223 414Q283 414 321 379T360 288Q360 257 330 257H119Q105 257 100 250T94 220Q94 173 114 133T170 70T248 46Q307 46 346 91Q352 99
357 99Q365 99 365 89Q365 70 347 47Q325 18 289 2T213 -15Q159 -15 118 12ZM212 288Q259 288 286 293Q294 294 294 315Q294 344 269 364T208 385Q186 385 163 372T124 338T109 298Q109 288 121 288H212ZM235 457T214 478Q193 499 158 540T106 607Q104 609 100
615T96 628Q96 638 110 643T145 649Q152 649 159 644T172 631Q189 602 214 555T249 484Q253 473 253 466Q253 457 245 457Q235 457 214 478Z" />
<glyph unicode="&#xe9;" glyph-name="eacute" horiz-adv-x="390" d="M159 -15T118 12T53 88T30 203Q30 259 56 308T127 385T223 414Q283 414 321 379T360 288Q360 257 330 257H119Q105 257 100 250T94 220Q94 173 114 133T170 70T248 46Q307 46 346 91Q352 99
357 99Q365 99 365 89Q365 70 347 47Q325 18 289 2T213 -15Q159 -15 118 12ZM212 288Q259 288 286 293Q294 294 294 315Q294 344 269 364T208 385Q186 385 163 372T124 338T109 298Q109 288 121 288H212ZM190 457T190 466Q190 473 194 484Q203 508 228 555T271
631Q276 639 283 644T298 649Q318 649 332 644T347 628Q347 621 343 615T337 607Q320 582 285 541T229 478Q208 457 198 457Q190 457 190 466Z" />
<glyph unicode="&#xea;" glyph-name="ecircumflex" horiz-adv-x="390" d="M159 -15T118 12T53 88T30 203Q30 259 56 308T127 385T223 414Q283 414 321 379T360 288Q360 257 330 257H119Q105 257 100 250T94 220Q94 173 114 133T170 70T248 46Q307 46 346 91Q352
99 357 99Q365 99 365 89Q365 70 347 47Q325 18 289 2T213 -15Q159 -15 118 12ZM212 288Q259 288 286 293Q294 294 294 315Q294 344 269 364T208 385Q186 385 163 372T124 338T109 298Q109 288 121 288H212ZM231 648T242 630Q261 600 295 539T330 468Q330 460 329
458T321 455Q312 455 292 477Q268 504 226 562Q224 565 223 565T219 562Q177 504 153 477Q133 455 123 455Q117 455 116 457T114 468Q114 477 148 538T202 630Q213 648 222 648Q231 648 242 630Z" />
<glyph unicode="&#xeb;" glyph-name="edieresis" horiz-adv-x="390" d="M159 -15T118 12T53 88T30 203Q30 259 56 308T127 385T223 414Q283 414 321 379T360 288Q360 257 330 257H119Q105 257 100 250T94 220Q94 173 114 133T170 70T248 46Q307 46 346 91Q352
99 357 99Q365 99 365 89Q365 70 347 47Q325 18 289 2T213 -15Q159 -15 118 12ZM212 288Q259 288 286 293Q294 294 294 315Q294 344 269 364T208 385Q186 385 163 372T124 338T109 298Q109 288 121 288H212ZM115 508T100 523T84 558Q84 577 99 592T134 608Q153
608 168 593T184 558Q184 539 169 524T134 508Q115 508 100 523ZM292 508T277 523T261 558Q261 577 276 592T311 608Q330 608 345 593T361 558Q361 539 346 524T311 508Q292 508 277 523Z" />
<glyph unicode="&#xec;" glyph-name="igrave" horiz-adv-x="245" d="M24 -3T24 8Q24 15 29 18T47 24Q70 30 80 37T90 62V279Q90 345 45 352Q35 353 35 365Q35 376 44 377Q105 391 149 427Q158 434 163 434Q169 434 169 429Q169 418 166 391Q165 379 163 347T160
294V62Q160 46 170 38T203 24Q215 21 220 18T226 8Q226 -3 206 -3Q181 -3 164 0Q142 2 125 2Q109 2 87 0Q71 -3 44 -3Q24 -3 24 8ZM137 457T116 478Q95 499 60 540T8 607Q6 609 2 615T-2 628Q-2 638 12 643T47 649Q54 649 61 644T74 631Q91 602 116 555T151 484Q155
473 155 466Q155 457 147 457Q137 457 116 478Z" />
<glyph unicode="&#xed;" glyph-name="iacute" horiz-adv-x="245" d="M24 -3T24 8Q24 15 29 18T47 24Q70 30 80 37T90 62V279Q90 345 45 352Q35 353 35 365Q35 376 44 377Q105 391 149 427Q158 434 163 434Q169 434 169 429Q169 418 166 391Q165 379 163 347T160
294V62Q160 46 170 38T203 24Q215 21 220 18T226 8Q226 -3 206 -3Q181 -3 164 0Q142 2 125 2Q109 2 87 0Q71 -3 44 -3Q24 -3 24 8ZM92 457T92 466Q92 473 96 484Q105 508 130 555T173 631Q178 639 185 644T200 649Q220 649 234 644T249 628Q249 621 245 615T239
607Q222 582 187 541T131 478Q110 457 100 457Q92 457 92 466Z" />
<glyph unicode="&#xee;" glyph-name="icircumflex" horiz-adv-x="245" d="M24 -3T24 8Q24 15 29 18T47 24Q70 30 80 37T90 62V279Q90 345 45 352Q35 353 35 365Q35 376 44 377Q105 391 149 427Q158 434 163 434Q169 434 169 429Q169 418 166 391Q165 379 163 347T160
294V62Q160 46 170 38T203 24Q215 21 220 18T226 8Q226 -3 206 -3Q181 -3 164 0Q142 2 125 2Q109 2 87 0Q71 -3 44 -3Q24 -3 24 8ZM389 648T400 630Q419 600 453 539T488 468Q488 460 487 458T479 455Q470 455 450 477Q426 504 384 562Q382 565 381 565T377 562Q335
504 311 477Q291 455 281 455Q275 455 274 457T272 468Q272 477 306 538T360 630Q371 648 380 648Q389 648 400 630Z" />
<glyph unicode="&#xef;" glyph-name="idieresis" horiz-adv-x="245" d="M24 -3T24 8Q24 15 29 18T47 24Q70 30 80 37T90 62V279Q90 345 45 352Q35 353 35 365Q35 376 44 377Q105 391 149 427Q158 434 163 434Q169 434 169 429Q169 418 166 391Q165 379 163 347T160
294V62Q160 46 170 38T203 24Q215 21 220 18T226 8Q226 -3 206 -3Q181 -3 164 0Q142 2 125 2Q109 2 87 0Q71 -3 44 -3Q24 -3 24 8ZM273 508T258 523T242 558Q242 577 257 592T292 608Q311 608 326 593T342 558Q342 539 327 524T292 508Q273 508 258 523ZM450 508T435
523T419 558Q419 577 434 592T469 608Q488 608 503 593T519 558Q519 539 504 524T469 508Q450 508 435 523Z" />
<glyph unicode="&#xf0;" glyph-name="eth" horiz-adv-x="487" d="M175 -14T128 11T53 82T25 186Q25 247 57 299T142 383T256 414Q300 414 343 391Q349 389 349 389Q353 389 351 400Q323 504 283 552L128 472Q126 471 123 471Q119 471 117 474T114 480Q114 511
122 515L254 584Q215 621 170 645T84 678Q75 680 70 683T64 693Q64 705 90 705Q137 705 196 680T309 612L410 665Q417 670 427 670Q435 670 435 664Q435 648 432 638T417 622L342 583Q393 528 424 450T456 250Q456 188 430 127T353 26T231 -14Q175 -14 128 11ZM286
16T315 44T361 119T378 219Q378 295 345 329Q323 352 295 366T236 380Q195 380 166 356T123 292T108 210Q108 161 127 116T180 44T252 16Q286 16 315 44Z" />
<glyph unicode="&#xf1;" glyph-name="ntilde" horiz-adv-x="528" d="M24 -3T24 8Q24 15 29 17T47 24Q68 29 79 36T90 62V277Q90 309 83 326T53 349Q43 352 43 362Q43 373 52 374Q83 382 104 394T152 425Q159 430 163 430Q168 430 168 423L166 402Q165 394 164
383T163 359Q163 349 165 347Q201 381 240 397T326 414Q374 414 406 374T439 275V62Q439 44 449 38T482 24Q494 20 499 17T505 6Q505 -3 485 -3Q458 -3 442 0Q422 2 405 2Q389 2 367 0Q351 -3 323 -3Q303 -3 303 6Q303 13 308 16T326 24Q348 31 358 37T369 62V272Q369
315 345 340T279 366Q217 366 168 326Q160 318 160 303V62Q160 44 171 37T203 24Q215 21 220 18T226 8Q226 -3 206 -3Q180 -3 163 0Q141 2 125 2Q109 2 87 0Q71 -3 44 -3Q24 -3 24 8ZM126 458T126 473Q126 478 145 502T187 547T220 567Q235 567 248 565T271 562Q315
558 327 558Q347 558 366 577Q374 585 383 595T394 605Q402 605 407 600T413 588Q413 584 391 562Q379 551 364 532T344 506Q339 499 330 496T315 492Q303 492 279 495Q219 500 204 500Q189 500 165 478Q160 474 153 466T142 458Q126 458 126 473Z" />
<glyph unicode="&#xf2;" glyph-name="ograve" horiz-adv-x="495" d="M179 -14T134 12T62 84T35 187Q35 242 64 295T144 381T254 414Q311 414 358 387T432 313T460 213Q460 153 434 101T357 18T234 -14Q179 -14 134 12ZM330 16T358 71Q378 110 378 189Q378 237
360 282T310 355T237 383Q208 383 187 374T149 343Q131 320 124 287T117 210Q117 160 135 116T184 44T255 16Q330 16 358 71ZM267 457T246 478Q225 499 190 540T138 607Q136 609 132 615T128 628Q128 638 142 643T177 649Q184 649 191 644T204 631Q221 602 246
555T281 484Q285 473 285 466Q285 457 277 457Q267 457 246 478Z" />
<glyph unicode="&#xf3;" glyph-name="oacute" horiz-adv-x="495" d="M179 -14T134 12T62 84T35 187Q35 242 64 295T144 381T254 414Q311 414 358 387T432 313T460 213Q460 153 434 101T357 18T234 -14Q179 -14 134 12ZM330 16T358 71Q378 110 378 189Q378 237
360 282T310 355T237 383Q208 383 187 374T149 343Q131 320 124 287T117 210Q117 160 135 116T184 44T255 16Q330 16 358 71ZM222 457T222 466Q222 473 226 484Q235 508 260 555T303 631Q308 639 315 644T330 649Q350 649 364 644T379 628Q379 621 375 615T369
607Q352 582 317 541T261 478Q240 457 230 457Q222 457 222 466Z" />
<glyph unicode="&#xf4;" glyph-name="ocircumflex" horiz-adv-x="495" d="M179 -14T134 12T62 84T35 187Q35 242 64 295T144 381T254 414Q311 414 358 387T432 313T460 213Q460 153 434 101T357 18T234 -14Q179 -14 134 12ZM330 16T358 71Q378 110 378 189Q378
237 360 282T310 355T237 383Q208 383 187 374T149 343Q131 320 124 287T117 210Q117 160 135 116T184 44T255 16Q330 16 358 71ZM263 648T274 630Q293 600 327 539T362 468Q362 460 361 458T353 455Q344 455 324 477Q300 504 258 562Q256 565 255 565T251 562Q209
504 185 477Q165 455 155 455Q149 455 148 457T146 468Q146 477 180 538T234 630Q245 648 254 648Q263 648 274 630Z" />
<glyph unicode="&#xf5;" glyph-name="otilde" horiz-adv-x="495" d="M179 -14T134 12T62 84T35 187Q35 242 64 295T144 381T254 414Q311 414 358 387T432 313T460 213Q460 153 434 101T357 18T234 -14Q179 -14 134 12ZM330 16T358 71Q378 110 378 189Q378 237
360 282T310 355T237 383Q208 383 187 374T149 343Q131 320 124 287T117 210Q117 160 135 116T184 44T255 16Q330 16 358 71ZM109 458T109 473Q109 478 128 502T170 547T203 567Q218 567 231 565T254 562Q298 558 310 558Q330 558 349 577Q357 585 366 595T377
605Q385 605 390 600T396 588Q396 584 374 562Q362 551 347 532T327 506Q322 499 313 496T298 492Q286 492 262 495Q202 500 187 500Q172 500 148 478Q143 474 136 466T125 458Q109 458 109 473Z" />
<glyph unicode="&#xf6;" glyph-name="odieresis" horiz-adv-x="495" d="M179 -14T134 12T62 84T35 187Q35 242 64 295T144 381T254 414Q311 414 358 387T432 313T460 213Q460 153 434 101T357 18T234 -14Q179 -14 134 12ZM330 16T358 71Q378 110 378 189Q378 237
360 282T310 355T237 383Q208 383 187 374T149 343Q131 320 124 287T117 210Q117 160 135 116T184 44T255 16Q330 16 358 71ZM147 508T132 523T116 558Q116 577 131 592T166 608Q185 608 200 593T216 558Q216 539 201 524T166 508Q147 508 132 523ZM324 508T309
523T293 558Q293 577 308 592T343 608Q362 608 377 593T393 558Q393 539 378 524T343 508Q324 508 309 523Z" />
<glyph unicode="&#xf7;" glyph-name="divide" horiz-adv-x="590" d="M274 352T260 366T246 399Q246 418 260 432T293 446Q313 446 326 433T340 399Q340 380 327 366T293 352Q274 352 260 366ZM79 231T75 234T70 241Q70 253 75 267T93 282H511Q515 282 519 279T523
272Q523 257 515 244T493 231H84Q79 231 75 234ZM275 67T261 81T247 114Q247 133 261 147T294 161Q314 161 327 148T341 114Q341 95 328 81T294 67Q275 67 261 81Z" />
<glyph unicode="&#xf8;" glyph-name="oslash" horiz-adv-x="485" d="M415 338Q436 311 448 279T460 213Q460 153 434 101T357 18T234 -14Q158 -14 103 33L57 -12Q54 -15 50 -15Q41 -15 34 -9T26 5Q26 17 36 25L75 63Q35 116 35 187Q35 242 64 295T144 381T254
414Q292 414 326 401T389 364L438 411Q442 415 449 415Q463 415 463 400Q463 393 460 386T452 374L415 338ZM117 162T134 119L342 318Q322 348 296 365T237 383Q208 383 187 374T149 343Q131 320 124 287T117 210Q117 162 134 119ZM378 237T359 284L152 81Q171
51 197 34T255 16Q330 16 358 71Q378 110 378 189Q378 237 359 284Z" />
<glyph unicode="&#xf9;" glyph-name="ugrave" d="M359 -19T359 -11L361 16Q364 36 364 51V57Q326 19 286 3T199 -14Q148 -14 117 17T85 105V308Q85 330 75 343T42 365Q29 369 29 381Q29 395 44 397Q75 399 93 402T143 413L151 414Q162 414 161 400Q155 354 155
323V128Q155 92 181 65T239 37Q269 37 287 40T323 57Q341 70 354 87T368 132V315Q368 342 346 353T301 365Q280 365 280 382Q280 397 301 397Q344 398 369 401T424 413Q430 415 434 415Q439 415 443 412T447 404L445 395Q443 384 441 364T438 326V95Q438 45 456
45L479 47L502 48Q517 48 517 35Q517 27 514 25T503 21Q469 16 443 8T386 -13Q374 -19 366 -19Q359 -19 359 -11ZM265 457T244 478Q223 499 188 540T136 607Q134 609 130 615T126 628Q126 638 140 643T175 649Q182 649 189 644T202 631Q219 602 244 555T279 484Q283
473 283 466Q283 457 275 457Q265 457 244 478Z" />
<glyph unicode="&#xfa;" glyph-name="uacute" d="M359 -19T359 -11L361 16Q364 36 364 51V57Q326 19 286 3T199 -14Q148 -14 117 17T85 105V308Q85 330 75 343T42 365Q29 369 29 381Q29 395 44 397Q75 399 93 402T143 413L151 414Q162 414 161 400Q155 354 155
323V128Q155 92 181 65T239 37Q269 37 287 40T323 57Q341 70 354 87T368 132V315Q368 342 346 353T301 365Q280 365 280 382Q280 397 301 397Q344 398 369 401T424 413Q430 415 434 415Q439 415 443 412T447 404L445 395Q443 384 441 364T438 326V95Q438 45 456
45L479 47L502 48Q517 48 517 35Q517 27 514 25T503 21Q469 16 443 8T386 -13Q374 -19 366 -19Q359 -19 359 -11ZM220 457T220 466Q220 473 224 484Q233 508 258 555T301 631Q306 639 313 644T328 649Q348 649 362 644T377 628Q377 621 373 615T367 607Q350 582
315 541T259 478Q238 457 228 457Q220 457 220 466Z" />
<glyph unicode="&#xfb;" glyph-name="ucircumflex" d="M359 -19T359 -11L361 16Q364 36 364 51V57Q326 19 286 3T199 -14Q148 -14 117 17T85 105V308Q85 330 75 343T42 365Q29 369 29 381Q29 395 44 397Q75 399 93 402T143 413L151 414Q162 414 161 400Q155 354
155 323V128Q155 92 181 65T239 37Q269 37 287 40T323 57Q341 70 354 87T368 132V315Q368 342 346 353T301 365Q280 365 280 382Q280 397 301 397Q344 398 369 401T424 413Q430 415 434 415Q439 415 443 412T447 404L445 395Q443 384 441 364T438 326V95Q438 45
456 45L479 47L502 48Q517 48 517 35Q517 27 514 25T503 21Q469 16 443 8T386 -13Q374 -19 366 -19Q359 -19 359 -11ZM261 648T272 630Q291 600 325 539T360 468Q360 460 359 458T351 455Q342 455 322 477Q298 504 256 562Q254 565 253 565T249 562Q207 504 183
477Q163 455 153 455Q147 455 146 457T144 468Q144 477 178 538T232 630Q243 648 252 648Q261 648 272 630Z" />
<glyph unicode="&#xfc;" glyph-name="udieresis" d="M359 -19T359 -11L361 16Q364 36 364 51V57Q326 19 286 3T199 -14Q148 -14 117 17T85 105V308Q85 330 75 343T42 365Q29 369 29 381Q29 395 44 397Q75 399 93 402T143 413L151 414Q162 414 161 400Q155 354
155 323V128Q155 92 181 65T239 37Q269 37 287 40T323 57Q341 70 354 87T368 132V315Q368 342 346 353T301 365Q280 365 280 382Q280 397 301 397Q344 398 369 401T424 413Q430 415 434 415Q439 415 443 412T447 404L445 395Q443 384 441 364T438 326V95Q438 45
456 45L479 47L502 48Q517 48 517 35Q517 27 514 25T503 21Q469 16 443 8T386 -13Q374 -19 366 -19Q359 -19 359 -11ZM145 508T130 523T114 558Q114 577 129 592T164 608Q183 608 198 593T214 558Q214 539 199 524T164 508Q145 508 130 523ZM322 508T307 523T291
558Q291 577 306 592T341 608Q360 608 375 593T391 558Q391 539 376 524T341 508Q322 508 307 523Z" />
<glyph unicode="&#xfd;" glyph-name="yacute" horiz-adv-x="438" d="M42 -285T28 -275T13 -244Q13 -225 22 -212T46 -199Q54 -199 67 -202T86 -205Q98 -205 105 -194Q124 -165 147 -118T190 -16Q193 -7 193 7Q193 25 189 36L73 329Q56 370 28 378Q16 382 11 385T5
396Q5 405 25 405Q51 405 64 402Q82 400 98 400Q115 400 133 402Q148 405 174 405Q181 405 187 402T194 394Q194 387 185 381T165 372Q154 369 150 362T145 340Q145 331 153 312L234 112Q236 106 240 106Q243 106 245 112L314 295Q317 302 319 313T322 332Q322
349 317 357T302 370Q273 383 273 394Q273 399 279 402T293 405Q298 405 316 403Q352 400 364 400Q378 400 402 403Q414 405 423 405Q443 405 443 396Q443 389 438 386T420 378Q405 373 388 354T361 311L225 -13L210 -50Q148 -200 129 -244Q120 -264 103 -274T64
-285Q42 -285 28 -275ZM210 457T210 466Q210 473 214 484Q223 508 248 555T291 631Q296 639 303 644T318 649Q338 649 352 644T367 628Q367 621 363 615T357 607Q340 582 305 541T249 478Q228 457 218 457Q210 457 210 466Z" />
<glyph unicode="&#xfe;" glyph-name="thorn" horiz-adv-x="505" d="M29 -285T23 -284T16 -276Q16 -269 21 -266T39 -258Q63 -251 74 -244T85 -219V566Q85 593 74 613T39 639Q35 640 33 643T31 652Q31 662 38 664Q83 674 130 695L154 704L156 705Q158 705 160 703T162
698Q162 692 159 660T155 562V386Q155 350 157 348Q168 359 195 375T255 402T317 414Q366 414 403 387T461 317T481 225Q481 166 451 111T369 21T256 -14Q234 -14 203 -5T158 18Q155 18 155 -33V-219Q155 -238 164 -245T195 -258Q207 -262 212 -265T218 -276Q218
-282 212 -283T195 -285Q169 -285 154 -282Q134 -280 117 -280Q100 -280 80 -282Q65 -285 39 -285Q29 -285 23 -284ZM295 17T325 34T378 92T401 193Q401 294 358 331T265 369Q217 369 179 340Q167 331 161 315T155 269V115Q155 96 160 75T178 42Q190 31 214 24T271
17Q295 17 325 34Z" />
<glyph unicode="&#xff;" glyph-name="ydieresis" horiz-adv-x="438" d="M42 -285T28 -275T13 -244Q13 -225 22 -212T46 -199Q54 -199 67 -202T86 -205Q98 -205 105 -194Q124 -165 147 -118T190 -16Q193 -7 193 7Q193 25 189 36L73 329Q56 370 28 378Q16 382 11
385T5 396Q5 405 25 405Q51 405 64 402Q82 400 98 400Q115 400 133 402Q148 405 174 405Q181 405 187 402T194 394Q194 387 185 381T165 372Q154 369 150 362T145 340Q145 331 153 312L234 112Q236 106 240 106Q243 106 245 112L314 295Q317 302 319 313T322 332Q322
349 317 357T302 370Q273 383 273 394Q273 399 279 402T293 405Q298 405 316 403Q352 400 364 400Q378 400 402 403Q414 405 423 405Q443 405 443 396Q443 389 438 386T420 378Q405 373 388 354T361 311L225 -13L210 -50Q148 -200 129 -244Q120 -264 103 -274T64
-285Q42 -285 28 -275ZM135 508T120 523T104 558Q104 577 119 592T154 608Q173 608 188 593T204 558Q204 539 189 524T154 508Q135 508 120 523ZM312 508T297 523T281 558Q281 577 296 592T331 608Q350 608 365 593T381 558Q381 539 366 524T331 508Q312 508 297
523Z" />
<glyph unicode="&#x2013;" glyph-name="endash" horiz-adv-x="550" d="M59 185T55 189T50 197Q50 209 56 224T74 239H487Q492 239 496 235T500 227Q500 212 491 199T469 185H64Q59 185 55 189Z" />
<glyph unicode="&#x2014;" glyph-name="emdash" horiz-adv-x="950" d="M59 185T55 189T50 197Q50 209 56 224T74 239H887Q892 239 896 235T900 227Q900 212 891 199T869 185H64Q59 185 55 189Z" />
<glyph unicode="&#x2018;" glyph-name="quoteleft" horiz-adv-x="242" d="M192 691T196 688T201 680Q201 671 187 668Q148 660 120 634T91 559Q91 546 103 531T130 515Q152 513 164 502T177 473Q177 453 161 440T122 427Q86 427 63 454T39 524Q39 571 63 609T121
669T183 691Q192 691 196 688Z" />
<glyph unicode="&#x2019;" glyph-name="quoteright" horiz-adv-x="242" d="M50 426T46 429T41 437Q41 446 55 449Q94 457 122 483T151 558Q151 571 139 586T112 602Q90 604 78 615T65 644Q65 664 81 677T120 690Q156 690 179 663T203 593Q203 546 179 508T121
448T59 426Q50 426 46 429Z" />
<glyph unicode="&#x201a;" glyph-name="quotesinglbase" horiz-adv-x="242" d="M50 -147T46 -144T41 -136Q41 -127 55 -124Q94 -116 122 -90T151 -15Q151 -2 139 13T112 29Q90 31 78 42T65 71Q65 91 81 104T120 117Q156 117 179 90T203 20Q203 -27 179 -65T121
-125T59 -147Q50 -147 46 -144Z" />
<glyph unicode="&#x201c;" glyph-name="quotedblleft" horiz-adv-x="418" d="M370 690T374 687T379 679Q379 670 365 667Q326 659 298 633T269 558Q269 545 281 530T308 514Q330 512 342 501T355 472Q355 452 339 439T300 426Q264 426 241 453T217 523Q217 570
241 608T299 668T361 690Q370 690 374 687ZM194 690T198 687T203 679Q203 670 189 667Q150 659 122 633T93 558Q93 545 105 530T132 514Q154 512 166 501T179 472Q179 452 163 439T124 426Q88 426 65 453T41 523Q41 570 65 608T123 668T185 690Q194 690 198 687Z"
/>
<glyph unicode="&#x201d;" glyph-name="quotedblright" horiz-adv-x="418" d="M50 426T46 429T41 437Q41 446 55 449Q94 457 122 483T151 558Q151 571 139 586T112 602Q90 604 78 615T65 644Q65 664 81 677T120 690Q156 690 179 663T203 593Q203 546 179 508T121
448T59 426Q50 426 46 429ZM226 426T222 429T217 437Q217 446 231 449Q270 457 298 483T327 558Q327 571 315 586T288 602Q266 604 254 615T241 644Q241 664 257 677T296 690Q332 690 355 663T379 593Q379 546 355 508T297 448T235 426Q226 426 222 429Z" />
<glyph unicode="&#x201e;" glyph-name="quotedblbase" horiz-adv-x="418" d="M50 -147T46 -144T41 -136Q41 -127 55 -124Q94 -116 122 -90T151 -15Q151 -2 139 13T112 29Q90 31 78 42T65 71Q65 91 81 104T120 117Q156 117 179 90T203 20Q203 -27 179 -65T121 -125T59
-147Q50 -147 46 -144ZM226 -147T222 -144T217 -136Q217 -127 231 -124Q270 -116 298 -90T327 -15Q327 -2 315 13T288 29Q266 31 254 42T241 71Q241 91 257 104T296 117Q332 117 355 90T379 20Q379 -27 355 -65T297 -125T235 -147Q226 -147 222 -144Z" />
<glyph unicode="&#x2022;" glyph-name="bullet" horiz-adv-x="348" d="M120 231T83 268T45 360Q45 414 82 451T174 489Q228 489 265 452T303 360Q303 306 266 269T174 231Q120 231 83 268Z" />
<glyph unicode="&#x2039;" glyph-name="guilsinglleft" horiz-adv-x="384" d="M301 19T283 37Q234 85 180 123T78 182Q71 186 66 195T60 211Q60 217 63 218Q144 267 192 301T289 382Q307 400 318 400Q324 400 324 391Q324 384 319 376Q282 320 248 287T167 217Q161
213 161 210Q161 208 167 203Q209 171 245 134T319 40Q322 36 322 31Q322 26 320 23T313 19Q301 19 283 37Z" />
<glyph unicode="&#x203a;" glyph-name="guilsinglright" horiz-adv-x="384" d="M83 19T101 37Q150 85 204 123T306 182Q313 186 318 195T324 211Q324 217 321 218Q240 267 192 301T95 382Q77 400 66 400Q60 400 60 391Q60 384 65 376Q102 320 136 287T217 217Q223
213 223 210Q223 208 217 203Q175 171 139 134T65 40Q62 36 62 31Q62 26 64 23T71 19Q83 19 101 37Z" />
</font>
</defs>
</svg>
